(Classical) [WEB] The Beethoven Journey - Klavierkonzert Nr.5 "Emperor", Fantasie für Klavier, Chor und Orchester "Chorfantasie" (Leif Ove Andsnes, Mahler Chamber Orchestra) - 2014, FLAC (tracks), lossless


Статистика раздачи [Обновить пиров]
Размер:  188 MB   |    Зарегистрирован:  1 год 1 месяц   |    Скачан:  0 раз

Полного источника не было: Никогда

Личеров:  1  [  0 KB/s  ]   Подробная статистика пиров
 
   
 
 
 

[Цитировать]

LEIF OVE ANDSNES
Mahler Chamber Orchestra - Ludwig van Beethoven
THE BEETHOVEN JOURNEY
- Жанр: Classical
Год издания диска: 2014
Издатель (лейбл): Sony Classical
Дата записи: 2014
Аудиокодек: FLAC
Тип рипа: tracks
Битрейт аудио: lossless
Продолжительность: 00:56:32
Источник: Qobuz
Наличие сканов: Front, Digital Booklet-
Ludwig van Beethoven
Concerto for Piano and Orchestra No. 5 in E-Flat Major, Op. 73 "Emperor"
01. I. Allegro (20:07)
02. II. Adagio un poco moto - attacca (7:20)
03. III. Rondo. Allegro (10:29)
Fantasy for Piano, Chorus and Orchestra in C Minor, Op. 80 "Choral Fantasy"
04. I. Adagio (3:17)
05. II. Finale. Allegro - Allegretto, ma non troppo, quasi Andante con moto (15:19)
-Исполнители:
Leif Ove Andsnes (piano & direction)
Mahler Chamber Orchestra
Recorded live at the Prague Spring Festival in 2014-Отчёты

Лог проверки качества

-----------------------
DON'T MODIFY THIS FILE
-----------------------
PERFORMER: auCDtect Task Manager, ver. 1.6.0 RC1 build 1.6.0.1Copyright (c) 2008-2010 y-soft. All rights reservedhttp://y-soft.org
ANALYZER: auCDtect: CD records authenticity detector, version 0.8.2Copyright (c) 2004 Oleg Berngardt. All rights reserved.Copyright (c) 2004 Alexander Djourik. All rights reserved.
FILE: 05. Fantasy for Piano, Chorus and Orchestra Op. 80 Choral Fantasy II. Finale. Allegro - ....flac Size: 55306477 Hash: 533BF46C54ECDFF1B68652195F4273F6 Accuracy: -m0 Conclusion: CDDA 76% Signature: 86876328E2C1364FC54F759C9902E3521ABB995CFILE: 04. Fantasy for Piano, Chorus and Orchestra Op. 80 Choral Fantasy I. Adagio.flac Size: 9521066 Hash: CEBAFCF36E7E601491CABD1ABB3981C4 Accuracy: -m0 Conclusion: MPEG 99% Signature: 2200F42AFF441F461E4BE6B64930A755ABAE0B92FILE: 03. Concerto for Piano and Orchestra No. 5 Op. 73 III. Rondo. Allegro.flac Size: 38239342 Hash: E284278155509A56B646B89F22BDB397 Accuracy: -m0 Conclusion: CDDA 76% Signature: 420820EA82BAD2FEDBB4271936355AD5303874BDFILE: 02. Concerto for Piano and Orchestra No. 5 Op. 73 II. Adagio un poco moto - attacca.flac Size: 20340579 Hash: 7F677A90940C230E65FC066517E1E242 Accuracy: -m0 Conclusion: CDDA 42% Signature: 07D63D18E1E2D09F8B2BF21F95A1642B34ABA722FILE: 01. Concerto for Piano and Orchestra No. 5 Op. 73 I. Allegro.flac Size: 73094169 Hash: 61D509196496C690C7356654D614C01F Accuracy: -m0 Conclusion: CDDA 62% Signature: A9FA9256636284D1DFAE14D234C6B76E703BBB7E

Динамический диапазон

foobar2000 1.2.2 / Замер динамического диапазона (DR) 1.1.1Дата отчёта: 2014-10-23 00:28:38
--------------------------------------------------------------------------------Анализ: Leif Ove Andsnes / The Beethoven Journey - Piano Concerto No.5 "Emperor" & Choral Fantasy--------------------------------------------------------------------------------
DR Пики RMS Продолжительность трека--------------------------------------------------------------------------------DR16 -0.67 дБ -23.74 дБ 20:07 ?-Concerto for Piano and Orchestra No. 5 in E-Flat Major, Op. 73 : I. AllegroDR14 -10.39 дБ -32.25 дБ 7:20 ?-Concerto for Piano and Orchestra No. 5 in E-Flat Major, Op. 73 : II. Adagio un poco moto - attaccaDR14 -4.07 дБ -23.84 дБ 10:29 ?-Concerto for Piano and Orchestra No. 5 in E-Flat Major, Op. 73 : III. Rondo. AllegroDR15 -6.19 дБ -25.95 дБ 3:17 ?-Fantasy for Piano, Chorus and Orchestra in C Minor, Op. 80 "Choral Fantasy" : I. AdagioDR16 -0.06 дБ -21.95 дБ 15:19 ?-Fantasy for Piano, Chorus and Orchestra in C Minor, Op. 80 "Choral Fantasy" : II. Finale. Allegro - Allegretto, ma non troppo, quasi Andante con moto--------------------------------------------------------------------------------
Количество треков: 5Реальные значения DR: DR15
Частота: 44100 ГцКаналов: 2Разрядность: 16Битрейт: 481 кбит/сКодек: FLAC================================================================================

Скриншот спектра частот

Доп. информация

Релиз полностью готов к воспроизведению в аудиоплеере (я ориентировался на foobar2000)При скачивании, если необходимо, переименуйте папку, в которой будет находиться альбомБольшая просьба к скачавшим поддерживать раздачу! Помогайте другим, ведь вам тоже может понадобиться помощь!Не забываем говорить "Спасибо"!Комментарии приветствуются!
[teatrix.ru].t9864.torrent 
Торрент: Зарегистрирован [ 2015-10-25 20:37 ] · 8975B172601BBE052BEF5A262B12B6626F38B81F

Скачать .torrent

Скачать

16 KB

Статус: проверено
Скачан: 0 раз
Размер: 188 MB
terms.php



Быстрый ответ

Имя:

      
Для отправки сообщений необходимо включить JavaScript
Показать сообщения:    

Текущее время: 08-Дек 10:54

Часовой пояс: UTC + 3


Вы можете начинать темы
Вы можете отвечать на сообщения
Вы не можете редактировать свои сообщения
Вы не можете удалять свои сообщения
Вы не можете голосовать в опросах
Вы не можете прикреплять файлы к сообщениям
Вы можете скачивать файлы