(Classical) Сергей Рахманинов - Концерты #2,3, Рапсодия на тему Паганини, Соната #2, Прелюдия G Minor(Lang Lang, Оркестр Мариинского Театра, Валерий Гергиев, Оркестр Санкт-Петербургской филармонии, Юрий Темирканов) - 2014, FLAC (tracks+.cue) lossless


Статистика раздачи [Обновить пиров]
Размер:  528 MB   |    Зарегистрирован:  1 год 1 месяц   |    Скачан:  0 раз

Полного источника не было: Никогда

Личеров:  1  [  0 KB/s  ]   Подробная статистика пиров
 
   
 
 
 

[Цитировать]

The Romance of Rachmaninov - Сергей РахманиновLANG LANGРомантика Рахманинова- Жанр: Classical
Год издания диска: 2014
Издатель (лейбл): Deutsche Grammophon
Номер по каталогу: 0028947922360
Дата записи: 2000-2004
Аудиокодек: FLAC
Тип рипа: tracks+.cue
Битрейт аудио: lossless
Продолжительность: 02:24:54
Релизер: Caloriana
Купить: Presto Classical
Наличие сканов: нет-Исполнители:
Сергей Рахманинов
Lang Lang - фортепиано
Симфонический оркестр Мариинского театра
Дирижёр Валерий Гергиев
Академический симфонический оркестр Санкт-Петербургской филармонии
Дирижёр Юрий Темирканов
-ТреклистCD 1 (01:20:12)
Piano Concerto No. 2 in C minor, Op. 18
Orchestra of the Mariinsky Theatre, Valery Gergiev
(Live at Mikkeli, Martti Talvela Hall / 2004)
01. 1. Moderato (11:45)
02. 2. Adagio sostenuto (12:27)
03. 3. Allegro scherzando (12:20)
Rhapsody on a Theme of Paganini, Op. 43
Orchestra of the Mariinsky Theatre, Valery Gergiev
(Live at Mikkeli, Martti Talvela Hall / 2004)
04. Introduction (0:10)
05. Variation I (0:21)
06. Tema (0:21)
07. Variation II (0:20)
08. Variation III (0:26)
09. Variation IV (0:29)
10. Variation V (0:30)
11. Variation VI (1:08)
12. Variation VII (1:13)
13. Variation VIII (0:35)
14. Variation IX (0:32)
15. Variation X (0:57)
16. Variation XI (1:44)
17. Variation XII (1:14)
18. Variation XIII (0:29)
19. Variation XIV (0:43)
20. Variation XV (1:11)
21. Variation XVI (1:31)
22. Variation XVII (1:58)
23. Variation XVIII (2:49)
24. Variation XIX (0:26)
25. Variation XX (0:35)
26. Variation XXI (0:26)
27. Variation XXII (1:39)
28. Variation XXIII (0:52)
29. Variation XXIV (1:28)
30. Trio élégiaque No. 1 in G minor, Op. post. (15:02)
with Vadim Repin (violin) & Mischa Maisky (cello)
31. Prelude in G minor Op. 23 no. 5 (4:33)
CD 2 (01:04:42)
Piano Concerto No. 3 in D minor, Op. 30
St. Petersburg Philharmonic Orchestra, Yuri Temirkanov
(Live At Royal Albert Hall, London / 2001)
01. 1. Allegro ma non tanto (17:47)
02. 2. Intermezzo (Adagio) (11:14)
03. 3. Finale (Alla breve) (14:41)
Piano Sonata No. 2 in B flat minor, Op. 36
(Live At Florence Gould Auditorium / Seiji Ozawa Hall, Tanglewood / 2000)
04. 1. Allegro agitato (8:18)
05. 2. Non allegro - Lento (7:41)
06. 3. Allegro molto (5:00)

ОтчётыCD 1Лог создания рипа

Exact Audio Copy V1.0 beta 3 from 29. August 2011
EAC extraction logfile from 19. April 2014, 17:19
Lang Lang / The Romance of Rachmaninov
Used drive : ASUS SDRW-08D2S-U Adapter: 1 ID: 0
Read mode : SecureUtilize accurate stream : YesDefeat audio cache : YesMake use of C2 pointers : No
Read offset correction : 6Overread into Lead-In and Lead-Out : NoFill up missing offset samples with silence : YesDelete leading and trailing silent blocks : NoNull samples used in CRC calculations : YesUsed interface : Installed external ASPI interfaceGap handling : Appended to previous track
Used output format : User Defined EncoderSelected bitrate : 1024 kBit/sQuality : HighAdd ID3 tag : NoCommand line compressor : C:\Program Files (x86)\Exact Audio Copy\Flac\flac.exeAdditional command line options : -8 -V -T "ARTIST=%artist%" -T "TITLE=%title%" -T "ALBUM=%albumtitle%" -T "DATE=%year%" -T "TRACKNUMBER=%tracknr%" -T "GENRE=%genre%" -T "PERFORMER=%albuminterpret%" -T "COMPOSER=%composer%" %haslyrics%--tag-from-file=LYRICS="%lyricsfile%"%haslyrics% -T "ALBUMARTIST=%albumartist%" -T "DISCNUMBER=%cdnumber%" -T "TOTALDISCS=%totalcds%" -T "TOTALTRACKS=%numtracks%" -T "COMMENT=%comment%" %source% -o %dest%
TOC of the extracted CD
Track | Start | Length | Start sector | End sector --------------------------------------------------------- 1 | 0:00.00 | 11:44.53 | 0 | 52852 2 | 11:44.53 | 12:27.18 | 52853 | 108895 3 | 24:11.71 | 12:19.53 | 108896 | 164373 4 | 36:31.49 | 0:09.43 | 164374 | 165091 5 | 36:41.17 | 0:20.50 | 165092 | 166641 6 | 37:01.67 | 0:20.40 | 166642 | 168181 7 | 37:22.32 | 0:20.27 | 168182 | 169708 8 | 37:42.59 | 0:26.16 | 169709 | 171674 9 | 38:09.00 | 0:29.27 | 171675 | 173876 10 | 38:38.27 | 0:30.01 | 173877 | 176127 11 | 39:08.28 | 1:07.38 | 176128 | 181190 12 | 40:15.66 | 1:12.41 | 181191 | 186631 13 | 41:28.32 | 0:35.12 | 186632 | 189268 14 | 42:03.44 | 0:32.10 | 189269 | 191678 15 | 42:35.54 | 0:56.71 | 191679 | 195949 16 | 43:32.50 | 1:44.25 | 195950 | 203774 17 | 45:17.00 | 1:13.53 | 203775 | 209302 18 | 46:30.53 | 0:28.69 | 209303 | 211471 19 | 46:59.47 | 0:43.30 | 211472 | 214726 20 | 47:43.02 | 1:10.72 | 214727 | 220048 21 | 48:53.74 | 1:30.42 | 220049 | 226840 22 | 50:24.41 | 1:58.03 | 226841 | 235693 23 | 52:22.44 | 2:48.43 | 235694 | 248336 24 | 55:11.12 | 0:26.16 | 248337 | 250302 25 | 55:37.28 | 0:35.37 | 250303 | 252964 26 | 56:12.65 | 0:25.40 | 252965 | 254879 27 | 56:38.30 | 1:39.35 | 254880 | 262339 28 | 58:17.65 | 0:51.63 | 262340 | 266227 29 | 59:09.53 | 1:27.42 | 266228 | 272794 30 | 60:37.20 | 15:01.64 | 272795 | 340433 31 | 75:39.09 | 4:32.66 | 340434 | 360899
Track 1
Filename C:\Ripipito\Lang Lang - The Romance of Rachmaninov[2014]-FLAC\01 - Piano Concerto No. 2 in C minor op. 18 - 1. Moderato.wav
Pre-gap length 0:00:02.00
Peak level 94.5 % Extraction speed 1.6 X Track quality 100.0 % Test CRC 4F8455B1 Copy CRC 4F8455B1 Track not present in AccurateRip database Copy OK
Track 2
Filename C:\Ripipito\Lang Lang - The Romance of Rachmaninov[2014]-FLAC\02 - Piano Concerto No. 2 in C minor op. 18 - 2. Adagio sostenuto.wav
Peak level 88.7 % Extraction speed 1.9 X Track quality 100.0 % Test CRC D35D3C7D Copy CRC D35D3C7D Track not present in AccurateRip database Copy OK
Track 3
Filename C:\Ripipito\Lang Lang - The Romance of Rachmaninov[2014]-FLAC\03 - Piano Concerto No. 2 in C minor op. 18 - 3. Allegro scherzando.wav
Peak level 98.0 % Extraction speed 2.1 X Track quality 99.9 % Test CRC 5226E7C6 Copy CRC 5226E7C6 Track not present in AccurateRip database Copy OK
Track 4
Filename C:\Ripipito\Lang Lang - The Romance of Rachmaninov[2014]-FLAC\04 - Rhapsody on a Theme of Paganini op. 43 - Introduction.wav
Pre-gap length 0:00:08.00
Peak level 97.8 % Extraction speed 0.4 X Track quality 100.0 % Test CRC 5F7B627F Copy CRC 5F7B627F Track not present in AccurateRip database Copy OK
Track 5
Filename C:\Ripipito\Lang Lang - The Romance of Rachmaninov[2014]-FLAC\05 - Rhapsody on a Theme of Paganini op. 43 - Variation I.wav
Peak level 43.4 % Extraction speed 0.8 X Track quality 100.0 % Test CRC 36B34CA2 Copy CRC 36B34CA2 Track not present in AccurateRip database Copy OK
Track 6
Filename C:\Ripipito\Lang Lang - The Romance of Rachmaninov[2014]-FLAC\06 - Rhapsody on a Theme of Paganini op. 43 - Tema.wav
Peak level 21.6 % Extraction speed 0.5 X Track quality 99.4 % Test CRC 4F59FB59 Copy CRC 4F59FB59 Track not present in AccurateRip database Copy OK
Track 7
Filename C:\Ripipito\Lang Lang - The Romance of Rachmaninov[2014]-FLAC\07 - Rhapsody on a Theme of Paganini op. 43 - Variation II.wav
Peak level 32.0 % Extraction speed 0.8 X Track quality 100.0 % Test CRC F4E81E0A Copy CRC F4E81E0A Track not present in AccurateRip database Copy OK
Track 8
Filename C:\Ripipito\Lang Lang - The Romance of Rachmaninov[2014]-FLAC\08 - Rhapsody on a Theme of Paganini op. 43 - Variation III.wav
Peak level 29.1 % Extraction speed 0.6 X Track quality 99.5 % Test CRC 973C3A6E Copy CRC 973C3A6E Track not present in AccurateRip database Copy OK
Track 9
Filename C:\Ripipito\Lang Lang - The Romance of Rachmaninov[2014]-FLAC\09 - Rhapsody on a Theme of Paganini op. 43 - Variation IV.wav
Peak level 74.3 % Extraction speed 1.0 X Track quality 100.0 % Test CRC DFAF312D Copy CRC DFAF312D Track not present in AccurateRip database Copy OK
Track 10
Filename C:\Ripipito\Lang Lang - The Romance of Rachmaninov[2014]-FLAC\10 - Rhapsody on a Theme of Paganini op. 43 - Variation V.wav
Peak level 79.5 % Extraction speed 1.1 X Track quality 100.0 % Test CRC 327C2784 Copy CRC 327C2784 Track not present in AccurateRip database Copy OK
Track 11
Filename C:\Ripipito\Lang Lang - The Romance of Rachmaninov[2014]-FLAC\11 - Rhapsody on a Theme of Paganini op. 43 - Variation VI.wav
Peak level 54.4 % Extraction speed 1.6 X Track quality 100.0 % Test CRC A770FFA1 Copy CRC A770FFA1 Track not present in AccurateRip database Copy OK
Track 12
Filename C:\Ripipito\Lang Lang - The Romance of Rachmaninov[2014]-FLAC\12 - Rhapsody on a Theme of Paganini op. 43 - Variation VII.wav
Peak level 51.9 % Extraction speed 1.7 X Track quality 100.0 % Test CRC 220E338B Copy CRC 220E338B Track not present in AccurateRip database Copy OK
Track 13
Filename C:\Ripipito\Lang Lang - The Romance of Rachmaninov[2014]-FLAC\13 - Rhapsody on a Theme of Paganini op. 43 - Variation VIII.wav
Peak level 74.8 % Extraction speed 0.8 X Track quality 99.6 % Test CRC AA1932FB Copy CRC AA1932FB Track not present in AccurateRip database Copy OK
Track 14
Filename C:\Ripipito\Lang Lang - The Romance of Rachmaninov[2014]-FLAC\14 - Rhapsody on a Theme of Paganini op. 43 - Variation IX.wav
Peak level 83.5 % Extraction speed 1.1 X Track quality 100.0 % Test CRC 593FF68E Copy CRC 593FF68E Track not present in AccurateRip database Copy OK
Track 15
Filename C:\Ripipito\Lang Lang - The Romance of Rachmaninov[2014]-FLAC\15 - Rhapsody on a Theme of Paganini op. 43 - Variation X.wav
Peak level 98.2 % Extraction speed 1.5 X Track quality 100.0 % Test CRC 9E6D8AFA Copy CRC 9E6D8AFA Track not present in AccurateRip database Copy OK
Track 16
Filename C:\Ripipito\Lang Lang - The Romance of Rachmaninov[2014]-FLAC\16 - Rhapsody on a Theme of Paganini op. 43 - Variation XI.wav
Peak level 58.0 % Extraction speed 1.9 X Track quality 100.0 % Test CRC C42F58BC Copy CRC C42F58BC Track not present in AccurateRip database Copy OK
Track 17
Filename C:\Ripipito\Lang Lang - The Romance of Rachmaninov[2014]-FLAC\17 - Rhapsody on a Theme of Paganini op. 43 - Variation XII.wav
Peak level 33.5 % Extraction speed 1.3 X Track quality 99.8 % Test CRC D363A101 Copy CRC D363A101 Track not present in AccurateRip database Copy OK
Track 18
Filename C:\Ripipito\Lang Lang - The Romance of Rachmaninov[2014]-FLAC\18 - Rhapsody on a Theme of Paganini op. 43 - Variation XIII.wav
Peak level 81.5 % Extraction speed 1.1 X Track quality 100.0 % Test CRC E2957E4F Copy CRC E2957E4F Track not present in AccurateRip database Copy OK
Track 19
Filename C:\Ripipito\Lang Lang - The Romance of Rachmaninov[2014]-FLAC\19 - Rhapsody on a Theme of Paganini op. 43 - Variation XIV.wav
Peak level 97.2 % Extraction speed 1.4 X Track quality 100.0 % Test CRC 56DC9C25 Copy CRC 56DC9C25 Track not present in AccurateRip database Copy OK
Track 20
Filename C:\Ripipito\Lang Lang - The Romance of Rachmaninov[2014]-FLAC\20 - Rhapsody on a Theme of Paganini op. 43 - Variation XV.wav
Peak level 40.5 % Extraction speed 1.7 X Track quality 100.0 % Test CRC C515B330 Copy CRC C515B330 Track not present in AccurateRip database Copy OK
Track 21
Filename C:\Ripipito\Lang Lang - The Romance of Rachmaninov[2014]-FLAC\21 - Rhapsody on a Theme of Paganini op. 43 - Variation XVI.wav
Peak level 32.5 % Extraction speed 1.9 X Track quality 100.0 % Test CRC E4DA6E22 Copy CRC E4DA6E22 Track not present in AccurateRip database Copy OK
Track 22
Filename C:\Ripipito\Lang Lang - The Romance of Rachmaninov[2014]-FLAC\22 - Rhapsody on a Theme of Paganini op. 43 - Variation XVII.wav
Peak level 40.7 % Extraction speed 2.1 X Track quality 100.0 % Test CRC B269AF05 Copy CRC B269AF05 Track not present in AccurateRip database Copy OK
Track 23
Filename C:\Ripipito\Lang Lang - The Romance of Rachmaninov[2014]-FLAC\23 - Rhapsody on a Theme of Paganini op. 43 - Variation XVIII.wav
Peak level 88.1 % Extraction speed 2.3 X Track quality 100.0 % Test CRC 9B326464 Copy CRC 9B326464 Track not present in AccurateRip database Copy OK
Track 24
Filename C:\Ripipito\Lang Lang - The Romance of Rachmaninov[2014]-FLAC\24 - Rhapsody on a Theme of Paganini op. 43 - Variation XIX.wav
Peak level 44.3 % Extraction speed 0.7 X Track quality 99.5 % Test CRC B1A45580 Copy CRC B1A45580 Track not present in AccurateRip database Copy OK
Track 25
Filename C:\Ripipito\Lang Lang - The Romance of Rachmaninov[2014]-FLAC\25 - Rhapsody on a Theme of Paganini op. 43 - Variation XX.wav
Peak level 77.3 % Extraction speed 0.9 X Track quality 99.6 % Test CRC 18A8ACD2 Copy CRC 18A8ACD2 Track not present in AccurateRip database Copy OK
Track 26
Filename C:\Ripipito\Lang Lang - The Romance of Rachmaninov[2014]-FLAC\26 - Rhapsody on a Theme of Paganini op. 43 - Variation XXI.wav
Peak level 64.6 % Extraction speed 0.7 X Track quality 99.5 % Test CRC A7C039C5 Copy CRC A7C039C5 Track not present in AccurateRip database Copy OK
Track 27
Filename C:\Ripipito\Lang Lang - The Romance of Rachmaninov[2014]-FLAC\27 - Rhapsody on a Theme of Paganini op. 43 - Variation XXII.wav
Peak level 96.3 % Extraction speed 2.1 X Track quality 100.0 % Test CRC 33681240 Copy CRC 33681240 Track not present in AccurateRip database Copy OK
Track 28
Filename C:\Ripipito\Lang Lang - The Romance of Rachmaninov[2014]-FLAC\28 - Rhapsody on a Theme of Paganini op. 43 - Variation XXIII.wav
Peak level 98.4 % Extraction speed 1.7 X Track quality 100.0 % Test CRC 2A59622C Copy CRC 2A59622C Track not present in AccurateRip database Copy OK
Track 29
Filename C:\Ripipito\Lang Lang - The Romance of Rachmaninov[2014]-FLAC\29 - Rhapsody on a Theme of Paganini op. 43 - Variation XXIV.wav
Peak level 98.3 % Extraction speed 2.0 X Track quality 100.0 % Test CRC 307645E9 Copy CRC 307645E9 Track not present in AccurateRip database Copy OK
Track 30
Filename C:\Ripipito\Lang Lang - The Romance of Rachmaninov[2014]-FLAC\30 - Trio élégiaque No. 1 in G minor.wav
Pre-gap length 0:00:05.00
Peak level 98.9 % Extraction speed 2.9 X Track quality 100.0 % Test CRC 5F0A5786 Copy CRC 5F0A5786 Track not present in AccurateRip database Copy OK
Track 31
Filename C:\Ripipito\Lang Lang - The Romance of Rachmaninov[2014]-FLAC\31 - Prelude in G minor op. 23 no. 5.wav
Pre-gap length 0:00:05.00
Peak level 88.1 % Extraction speed 2.5 X Track quality 99.9 % Test CRC 1ED58750 Copy CRC 1ED58750 Track not present in AccurateRip database Copy OK
None of the tracks are present in the AccurateRip database
No errors occurred
End of status report
---- CUETools DB Plugin V2.1.3
[CTDB TOCID: TLUOIMLFkN_5F9ePr_PjPlzIeVc-] disk not present in database, Submit result: TLUOIMLFkN_5F9ePr_PjPlzIeVc- has been uploaded
==== Log checksum B2D4612B155AC515959CA9B341FE8776CC6AAE24A9B367C4535714039600B3C9 ====

Содержание индексной карты (.CUE)

REM GENRE ClassicalREM DATE 2014REM DISCID B112CC1FREM COMMENT "ExactAudioCopy v1.0b3"REM DISCNUMBER 1REM TOTALDISCS 2CATALOG 0028947922384PERFORMER "Lang Lang"TITLE "The Romance of Rachmaninov"FILE "01 - Piano Concerto No. 2 in C minor op. 18 - 1. Moderato.wav" WAVE TRACK 01 AUDIO TITLE "Piano Concerto No. 2 in C minor op. 18 - 1. Moderato" PERFORMER "Lang Lang" ISRC DEN960400911 INDEX 01 00:00:00FILE "02 - Piano Concerto No. 2 in C minor op. 18 - 2. Adagio sostenuto.wav" WAVE TRACK 02 AUDIO TITLE "Piano Concerto No. 2 in C minor op. 18 - 2. Adagio sostenuto" PERFORMER "Lang Lang" ISRC DEN960400912 INDEX 01 00:00:00FILE "03 - Piano Concerto No. 2 in C minor op. 18 - 3. Allegro scherzando.wav" WAVE TRACK 03 AUDIO TITLE "Piano Concerto No. 2 in C minor op. 18 - 3. Allegro scherzando" PERFORMER "Lang Lang" ISRC DEN960400913 INDEX 01 00:00:00 TRACK 04 AUDIO TITLE "Rhapsody on a Theme of Paganini op. 43 - Introduction" PERFORMER "Lang Lang" ISRC DEN960431101 INDEX 00 12:11:53FILE "04 - Rhapsody on a Theme of Paganini op. 43 - Introduction.wav" WAVE INDEX 01 00:00:00FILE "05 - Rhapsody on a Theme of Paganini op. 43 - Variation I.wav" WAVE TRACK 05 AUDIO TITLE "Rhapsody on a Theme of Paganini op. 43 - Variation I" PERFORMER "Lang Lang" ISRC DEN960431102 INDEX 01 00:00:00FILE "06 - Rhapsody on a Theme of Paganini op. 43 - Tema.wav" WAVE TRACK 06 AUDIO TITLE "Rhapsody on a Theme of Paganini op. 43 - Tema" PERFORMER "Lang Lang" ISRC DEN960431126 INDEX 01 00:00:00FILE "07 - Rhapsody on a Theme of Paganini op. 43 - Variation II.wav" WAVE TRACK 07 AUDIO TITLE "Rhapsody on a Theme of Paganini op. 43 - Variation II" PERFORMER "Lang Lang" ISRC DEN960431103 INDEX 01 00:00:00FILE "08 - Rhapsody on a Theme of Paganini op. 43 - Variation III.wav" WAVE TRACK 08 AUDIO TITLE "Rhapsody on a Theme of Paganini op. 43 - Variation III" PERFORMER "Lang Lang" ISRC DEN960431104 INDEX 01 00:00:00FILE "09 - Rhapsody on a Theme of Paganini op. 43 - Variation IV.wav" WAVE TRACK 09 AUDIO TITLE "Rhapsody on a Theme of Paganini op. 43 - Variation IV" PERFORMER "Lang Lang" ISRC DEN960431105 INDEX 01 00:00:00FILE "10 - Rhapsody on a Theme of Paganini op. 43 - Variation V.wav" WAVE TRACK 10 AUDIO TITLE "Rhapsody on a Theme of Paganini op. 43 - Variation V" PERFORMER "Lang Lang" ISRC DEN960431106 INDEX 01 00:00:00FILE "11 - Rhapsody on a Theme of Paganini op. 43 - Variation VI.wav" WAVE TRACK 11 AUDIO TITLE "Rhapsody on a Theme of Paganini op. 43 - Variation VI" PERFORMER "Lang Lang" ISRC DEN960431107 INDEX 01 00:00:00FILE "12 - Rhapsody on a Theme of Paganini op. 43 - Variation VII.wav" WAVE TRACK 12 AUDIO TITLE "Rhapsody on a Theme of Paganini op. 43 - Variation VII" PERFORMER "Lang Lang" ISRC DEN960431108 INDEX 01 00:00:00FILE "13 - Rhapsody on a Theme of Paganini op. 43 - Variation VIII.wav" WAVE TRACK 13 AUDIO TITLE "Rhapsody on a Theme of Paganini op. 43 - Variation VIII" PERFORMER "Lang Lang" ISRC DEN960431109 INDEX 01 00:00:00FILE "14 - Rhapsody on a Theme of Paganini op. 43 - Variation IX.wav" WAVE TRACK 14 AUDIO TITLE "Rhapsody on a Theme of Paganini op. 43 - Variation IX" PERFORMER "Lang Lang" ISRC DEN960431109 INDEX 01 00:00:00FILE "15 - Rhapsody on a Theme of Paganini op. 43 - Variation X.wav" WAVE TRACK 15 AUDIO TITLE "Rhapsody on a Theme of Paganini op. 43 - Variation X" PERFORMER "Lang Lang" ISRC DEN960431110 INDEX 01 00:00:00FILE "16 - Rhapsody on a Theme of Paganini op. 43 - Variation XI.wav" WAVE TRACK 16 AUDIO TITLE "Rhapsody on a Theme of Paganini op. 43 - Variation XI" PERFORMER "Lang Lang" ISRC DEN960431112 INDEX 01 00:00:00FILE "17 - Rhapsody on a Theme of Paganini op. 43 - Variation XII.wav" WAVE TRACK 17 AUDIO TITLE "Rhapsody on a Theme of Paganini op. 43 - Variation XII" PERFORMER "Lang Lang" ISRC DEN960431113 INDEX 01 00:00:00FILE "18 - Rhapsody on a Theme of Paganini op. 43 - Variation XIII.wav" WAVE TRACK 18 AUDIO TITLE "Rhapsody on a Theme of Paganini op. 43 - Variation XIII" PERFORMER "Lang Lang" ISRC DEN960431114 INDEX 01 00:00:00FILE "19 - Rhapsody on a Theme of Paganini op. 43 - Variation XIV.wav" WAVE TRACK 19 AUDIO TITLE "Rhapsody on a Theme of Paganini op. 43 - Variation XIV" PERFORMER "Lang Lang" ISRC DEN960431114 INDEX 01 00:00:00FILE "20 - Rhapsody on a Theme of Paganini op. 43 - Variation XV.wav" WAVE TRACK 20 AUDIO TITLE "Rhapsody on a Theme of Paganini op. 43 - Variation XV" PERFORMER "Lang Lang" ISRC DEN960431116 INDEX 01 00:00:00FILE "21 - Rhapsody on a Theme of Paganini op. 43 - Variation XVI.wav" WAVE TRACK 21 AUDIO TITLE "Rhapsody on a Theme of Paganini op. 43 - Variation XVI" PERFORMER "Lang Lang" ISRC DEN960431117 INDEX 01 00:00:00FILE "22 - Rhapsody on a Theme of Paganini op. 43 - Variation XVII.wav" WAVE TRACK 22 AUDIO TITLE "Rhapsody on a Theme of Paganini op. 43 - Variation XVII" PERFORMER "Lang Lang" ISRC DEN960431118 INDEX 01 00:00:00FILE "23 - Rhapsody on a Theme of Paganini op. 43 - Variation XVIII.wav" WAVE TRACK 23 AUDIO TITLE "Rhapsody on a Theme of Paganini op. 43 - Variation XVIII" PERFORMER "Lang Lang" ISRC DEN960431119 INDEX 01 00:00:00FILE "24 - Rhapsody on a Theme of Paganini op. 43 - Variation XIX.wav" WAVE TRACK 24 AUDIO TITLE "Rhapsody on a Theme of Paganini op. 43 - Variation XIX" PERFORMER "Lang Lang" ISRC DEN960431120 INDEX 01 00:00:00FILE "25 - Rhapsody on a Theme of Paganini op. 43 - Variation XX.wav" WAVE TRACK 25 AUDIO TITLE "Rhapsody on a Theme of Paganini op. 43 - Variation XX" PERFORMER "Lang Lang" ISRC DEN960431121 INDEX 01 00:00:00FILE "26 - Rhapsody on a Theme of Paganini op. 43 - Variation XXI.wav" WAVE TRACK 26 AUDIO TITLE "Rhapsody on a Theme of Paganini op. 43 - Variation XXI" PERFORMER "Lang Lang" ISRC DEN960431122 INDEX 01 00:00:00FILE "27 - Rhapsody on a Theme of Paganini op. 43 - Variation XXII.wav" WAVE TRACK 27 AUDIO TITLE "Rhapsody on a Theme of Paganini op. 43 - Variation XXII" PERFORMER "Lang Lang" ISRC DEN960431122 INDEX 01 00:00:00FILE "28 - Rhapsody on a Theme of Paganini op. 43 - Variation XXIII.wav" WAVE TRACK 28 AUDIO TITLE "Rhapsody on a Theme of Paganini op. 43 - Variation XXIII" PERFORMER "Lang Lang" ISRC DEN960431124 INDEX 01 00:00:00FILE "29 - Rhapsody on a Theme of Paganini op. 43 - Variation XXIV.wav" WAVE TRACK 29 AUDIO TITLE "Rhapsody on a Theme of Paganini op. 43 - Variation XXIV" PERFORMER "Lang Lang" ISRC DEN960431125 INDEX 01 00:00:00 TRACK 30 AUDIO TITLE "Trio йlйgiaque No. 1 in G minor" PERFORMER "Lang Lang" ISRC DEN960901550 INDEX 00 01:22:42FILE "30 - Trio йlйgiaque No. 1 in G minor.wav" WAVE INDEX 01 00:00:00 TRACK 31 AUDIO TITLE "Prelude in G minor op. 23 no. 5" PERFORMER "Lang Lang" ISRC DEN960431519 INDEX 00 14:56:64FILE "31 - Prelude in G minor op. 23 no. 5.wav" WAVE INDEX 01 00:00:00

Лог проверки качества

-----------------------
DON'T MODIFY THIS FILE
-----------------------
PERFORMER: auCDtect Task Manager, ver. 1.6.0 RC1 build 1.6.0.1Copyright (c) 2008-2010 y-soft. All rights reservedhttp://y-soft.org
ANALYZER: auCDtect: CD records authenticity detector, version 0.8.2Copyright (c) 2004 Oleg Berngardt. All rights reserved.Copyright (c) 2004 Alexander Djourik. All rights reserved.
FILE: 31 - Prelude in G minor op. 23 no. 5.flac Size: 16731963 Hash: 94665A245179DBCB608664290DC0F1DD Accuracy: -m0 Conclusion: CDDA 100% Signature: 05F1B296938EFB21AA0E6D91FFB3A8F1E60D3527FILE: 30 - Trio élégiaque No. 1 in G minor.flac Size: 65861205 Hash: B80C6ECB4FF0B91025E02A0F3AF1037F Accuracy: -m0 Conclusion: MPEG 100% Signature: 827CF988D7F407339FE2E2025FBA78A251459F94FILE: 29 - Rhapsody on a Theme of Paganini op. 43 - Variation XXIV.flac Size: 5900379 Hash: D004C10A90E0BB2F2645F6E1BDF0D71D Accuracy: -m0 Conclusion: CDDA 100% Signature: 643FD5C49C6259C713D3DD03376D595BAF5BD43AFILE: 28 - Rhapsody on a Theme of Paganini op. 43 - Variation XXIII.flac Size: 3848777 Hash: 0CA34890BA72A696532CB6F1370996AF Accuracy: -m0 Conclusion: CDDA 100% Signature: 86E4060A5473F46C3454ECD03C75851E27ED5C46FILE: 27 - Rhapsody on a Theme of Paganini op. 43 - Variation XXII.flac Size: 8142239 Hash: 531E9904E0CB2AB11097E8D8E8B22E16 Accuracy: -m0 Conclusion: CDDA 100% Signature: B65FF22C8A2AA5A5405490F6AF3A71C2D5FBB65CFILE: 26 - Rhapsody on a Theme of Paganini op. 43 - Variation XXI.flac Size: 1805964 Hash: 662D52D26C3176DFE765C0F831D02966 Accuracy: -m0 Conclusion: CDDA 100% Signature: B1AACC4596EF1D2408DB6BCD704E86218087164CFILE: 25 - Rhapsody on a Theme of Paganini op. 43 - Variation XX.flac Size: 2458016 Hash: 9D0F0CE6CF86C6DA03136243D1E07E2B Accuracy: -m0 Conclusion: CDDA 100% Signature: 82FEB081968AB8EC2DAAF80423C97E1D3EA27859FILE: 24 - Rhapsody on a Theme of Paganini op. 43 - Variation XIX.flac Size: 1389004 Hash: 1AEC64F6E6C9AC4533BABF18BF295C88 Accuracy: -m0 Conclusion: CDDA 49% Signature: B11713AAE2C82DD9F3FB26DE8238A002F2F5CD52FILE: 23 - Rhapsody on a Theme of Paganini op. 43 - Variation XVIII.flac Size: 10186615 Hash: 0363523D3F6406B72DB5CA1607D52F3D Accuracy: -m0 Conclusion: CDDA 100% Signature: 04957F62B1C2B8365B32C780A1459B58B7C2DD0CFILE: 22 - Rhapsody on a Theme of Paganini op. 43 - Variation XVII.flac Size: 6110094 Hash: 0D76A32D4B06B27627352ABB3B4D8D29 Accuracy: -m0 Conclusion: CDDA 94% Signature: 127E9166EFAE7C9E71CA3094074DC68109933940FILE: 21 - Rhapsody on a Theme of Paganini op. 43 - Variation XVI.flac Size: 5188509 Hash: 7770F17B04E35055C16D889FAFBA3202 Accuracy: -m0 Conclusion: CDDA 100% Signature: 79031474717C866ADE335908EDF8D7DDD0A99820FILE: 20 - Rhapsody on a Theme of Paganini op. 43 - Variation XV.flac Size: 3742372 Hash: 0335D9C9957251516D3FC613A2584742 Accuracy: -m0 Conclusion: CDDA 43% Signature: 7701C13BAB0E1BB6D8AC033661B02D1EF761031FFILE: 19 - Rhapsody on a Theme of Paganini op. 43 - Variation XIV.flac Size: 3823006 Hash: 030285CFDD275E1F0D169AB4283AD25E Accuracy: -m0 Conclusion: CDDA 100% Signature: C7817646B93BC1E84EAF97F34A9DDE015F6A6D4CFILE: 18 - Rhapsody on a Theme of Paganini op. 43 - Variation XIII.flac Size: 2554674 Hash: 9ADDB7A2B12A288D08309F07C89D4EC6 Accuracy: -m0 Conclusion: CDDA 100% Signature: D9F79878FEDC936CF05DA07F3F9D8F8E5F2F4CF6FILE: 17 - Rhapsody on a Theme of Paganini op. 43 - Variation XII.flac Size: 3625874 Hash: DFD6E8BDA3D2195E8D1FC8448A159271 Accuracy: -m0 Conclusion: CDDA 86% Signature: 284C554170398D2978157CEF911BBC37B136F745FILE: 16 - Rhapsody on a Theme of Paganini op. 43 - Variation XI.flac Size: 5141123 Hash: 21A281C1209EF82C452795B94C64A1EB Accuracy: -m0 Conclusion: CDDA 85% Signature: E038BE3255CC8238ACA19C0D37565E39BC95B329FILE: 15 - Rhapsody on a Theme of Paganini op. 43 - Variation X.flac Size: 4155814 Hash: 8A3375948EA6D29EAA59BD1CD0CA063C Accuracy: -m0 Conclusion: CDDA 100% Signature: 1D0A6CB00B8387916CFD9F0B01EAFE2CC25E92FAFILE: 14 - Rhapsody on a Theme of Paganini op. 43 - Variation IX.flac Size: 2620554 Hash: 851F938265A6BFC41B96F6EE71DC0AEF Accuracy: -m0 Conclusion: CDDA 100% Signature: 7E3AA80657B59E29CB64280EED2904DA16A9F551FILE: 13 - Rhapsody on a Theme of Paganini op. 43 - Variation VIII.flac Size: 2727273 Hash: 864EAF15573E1A33330C43512F05FBF0 Accuracy: -m0 Conclusion: CDDA 99% Signature: 51789F75FF9F9F75CEF012E10D998E5F2C2FA423FILE: 12 - Rhapsody on a Theme of Paganini op. 43 - Variation VII.flac Size: 3332560 Hash: 40AC4E62D3B2D7F1B3CBEE710390A61F Accuracy: -m0 Conclusion: CDDA 76% Signature: 6FA38C28A56C9B585E267E4D91A690F773C84292FILE: 11 - Rhapsody on a Theme of Paganini op. 43 - Variation VI.flac Size: 3552186 Hash: 9F2AE1DD8512A6F7A49413102BE151F4 Accuracy: -m0 Conclusion: CDDA 86% Signature: F28CDA9D0B8EAB55D7B5DBF01EDB263C4D33DE4AFILE: 10 - Rhapsody on a Theme of Paganini op. 43 - Variation V.flac Size: 1954160 Hash: FCAC3F46A9E8374188D5600CD1BF9487 Accuracy: -m0 Conclusion: CDDA 87% Signature: B1BF56D54EA0F0CD9955E379C2A5B79E598BD2FFFILE: 09 - Rhapsody on a Theme of Paganini op. 43 - Variation IV.flac Size: 2062089 Hash: 297DB1305C204CCB22FA597E944DEE2A Accuracy: -m0 Conclusion: CDDA 100% Signature: 04933F30228CCD769023B884FFC7E6E1E62757A4FILE: 08 - Rhapsody on a Theme of Paganini op. 43 - Variation III.flac Size: 1628015 Hash: C70CED420562BD1A45ACD82FC97C193F Accuracy: -m0 Conclusion: CDDA 100% Signature: B7FE405DF2AD43C8B8A432B1FA089B5FEB434320FILE: 07 - Rhapsody on a Theme of Paganini op. 43 - Variation II.flac Size: 1153424 Hash: B040C1DC3BC8634C16E9981B00162B3B Accuracy: -m0 Conclusion: CDDA 94% Signature: 03EC0DAC1D692BB96548747D6B844F52612060CBFILE: 06 - Rhapsody on a Theme of Paganini op. 43 - Tema.flac Size: 1356645 Hash: AA483BED2BA3A45D59B3DA0881FCA8C2 Accuracy: -m0 Conclusion: CDDA 100% Signature: F67C99E6B978429E64BE6288B698C13EB0750A0EFILE: 05 - Rhapsody on a Theme of Paganini op. 43 - Variation I.flac Size: 1303402 Hash: F5063F9E6011E0C175CF39E57E4D0497 Accuracy: -m0 Conclusion: CDDA 100% Signature: A7E03D0F30E659593C8EC0D2E32DC9E6C8B27613FILE: 04 - Rhapsody on a Theme of Paganini op. 43 - Introduction.flac Size: 700019 Hash: FBEFE0A1AA8A6C96A7A8CF2506E47193 Accuracy: -m0 Conclusion: CDDA 100% Signature: C5B749EB1BFD02E3AE22C04300D1BBC091DABCB0FILE: 03 - Piano Concerto No. 2 in C minor op. 18 - 3. Allegro scherzando.flac Size: 48192651 Hash: 2A6ECA74857D5927627AFE61A66A0DEB Accuracy: -m0 Conclusion: CDDA 99% Signature: EAA70A0B643272CAB47CFD61103CDA4E49EADA2BFILE: 02 - Piano Concerto No. 2 in C minor op. 18 - 2. Adagio sostenuto.flac Size: 41561011 Hash: DBDAC13EA71039E6F32363000BE25C96 Accuracy: -m0 Conclusion: CDDA 85% Signature: 4DF327B1244B691B2E1C157CF2E8DBBB071A813BFILE: 01 - Piano Concerto No. 2 in C minor op. 18 - 1. Moderato.flac Size: 43577656 Hash: B8464288E58BD674ACE46EA63EC9F1AE Accuracy: -m0 Conclusion: CDDA 100% Signature: B17AC3F9BC56AF3E024BC00F2843582D9A789523

Скриншот спектра частот

CD 2Лог создания рипа

Exact Audio Copy V1.0 beta 3 from 29. August 2011
EAC extraction logfile from 19. April 2014, 18:08
Lang Lang / The Romance of Rachmaninov
Used drive : ASUS SDRW-08D2S-U Adapter: 1 ID: 0
Read mode : SecureUtilize accurate stream : YesDefeat audio cache : YesMake use of C2 pointers : No
Read offset correction : 6Overread into Lead-In and Lead-Out : NoFill up missing offset samples with silence : YesDelete leading and trailing silent blocks : NoNull samples used in CRC calculations : YesUsed interface : Installed external ASPI interfaceGap handling : Appended to previous track
Used output format : User Defined EncoderSelected bitrate : 1024 kBit/sQuality : HighAdd ID3 tag : NoCommand line compressor : C:\Program Files (x86)\Exact Audio Copy\Flac\flac.exeAdditional command line options : -8 -V -T "ARTIST=%artist%" -T "TITLE=%title%" -T "ALBUM=%albumtitle%" -T "DATE=%year%" -T "TRACKNUMBER=%tracknr%" -T "GENRE=%genre%" -T "PERFORMER=%albuminterpret%" -T "COMPOSER=%composer%" %haslyrics%--tag-from-file=LYRICS="%lyricsfile%"%haslyrics% -T "ALBUMARTIST=%albumartist%" -T "DISCNUMBER=%cdnumber%" -T "TOTALDISCS=%totalcds%" -T "TOTALTRACKS=%numtracks%" -T "COMMENT=%comment%" %source% -o %dest%
TOC of the extracted CD
Track | Start | Length | Start sector | End sector --------------------------------------------------------- 1 | 0:00.00 | 17:47.19 | 0 | 80043 2 | 17:47.19 | 11:13.56 | 80044 | 130574 3 | 29:01.00 | 14:40.62 | 130575 | 196636 4 | 43:41.62 | 8:17.61 | 196637 | 233972 5 | 51:59.48 | 7:41.35 | 233973 | 268582 6 | 59:41.08 | 5:00.37 | 268583 | 291119
Track 1
Filename C:\Ripipito\Lang Lang - The Romance of Rachmaninov[2014]-FLAC\32 - Piano Concerto No. 3 in D minor op. 30 - 1. Allegro ma non tanto.wav
Pre-gap length 0:00:02.00
Peak level 90.4 % Extraction speed 3.4 X Track quality 100.0 % Test CRC 200DC8FB Copy CRC 200DC8FB Track not present in AccurateRip database Copy OK
Track 2
Filename C:\Ripipito\Lang Lang - The Romance of Rachmaninov[2014]-FLAC\33 - Piano Concerto No. 3 in D minor op. 30 - 2. Intermezzo (Adagio).wav
Peak level 100.0 % Extraction speed 4.2 X Track quality 100.0 % Test CRC AB17800D Copy CRC AB17800D Track not present in AccurateRip database Copy OK
Track 3
Filename C:\Ripipito\Lang Lang - The Romance of Rachmaninov[2014]-FLAC\34 - Piano Concerto No. 3 in D minor op. 30 - 3. Finale (Alla breve).wav
Peak level 100.0 % Extraction speed 4.8 X Track quality 100.0 % Test CRC E5F064A8 Copy CRC E5F064A8 Track not present in AccurateRip database Copy OK
Track 4
Filename C:\Ripipito\Lang Lang - The Romance of Rachmaninov[2014]-FLAC\35 - Piano Sonata No. 2 in B flat minor op. 36 - 1. Allegro agitato.wav
Pre-gap length 0:00:03.34
Peak level 84.1 % Extraction speed 5.2 X Track quality 100.0 % Test CRC 64676701 Copy CRC 64676701 Track not present in AccurateRip database Copy OK
Track 5
Filename C:\Ripipito\Lang Lang - The Romance of Rachmaninov[2014]-FLAC\36 - Piano Sonata No. 2 in B flat minor op. 36 - 2. Non allegro - Lento.wav
Peak level 58.4 % Extraction speed 4.7 X Track quality 99.9 % Test CRC BB2CFEEF Copy CRC BB2CFEEF Track not present in AccurateRip database Copy OK
Track 6
Filename C:\Ripipito\Lang Lang - The Romance of Rachmaninov[2014]-FLAC\37 - Piano Sonata No. 2 in B flat minor op. 36 - 3. Allegro molto.wav
Peak level 99.7 % Extraction speed 5.3 X Track quality 100.0 % Test CRC 5F2DBF4D Copy CRC 5F2DBF4D Track not present in AccurateRip database Copy OK
None of the tracks are present in the AccurateRip database
No errors occurred
End of status report
---- CUETools DB Plugin V2.1.3
[CTDB TOCID: qPhggRAZS7sY6WgCVAeJPm3Gjsw-] disk not present in database, Submit result: qPhggRAZS7sY6WgCVAeJPm3Gjsw- has been uploaded
==== Log checksum 03A5A5C242200231608A09AADC15403569A292FE1C87350BAA603803A0AA5DB1 ====

Содержание индексной карты (.CUE)

REM GENRE ClassicalREM DATE 2014REM DISCID 480F2906REM COMMENT "ExactAudioCopy v1.0b3"REM DISCNUMBER 2REM TOTALDISCS 2CATALOG 0028947922391PERFORMER "Lang Lang"TITLE "The Romance of Rachmaninov"FILE "32 - Piano Concerto No. 3 in D minor op. 30 - 1. Allegro ma non tanto.wav" WAVE TRACK 01 AUDIO TITLE "Piano Concerto No. 3 in D minor op. 30 - 1. Allegro ma non tanto" PERFORMER "Lang Lang" ISRC USTE10301582 INDEX 01 00:00:00FILE "33 - Piano Concerto No. 3 in D minor op. 30 - 2. Intermezzo (Adagio).wav" WAVE TRACK 02 AUDIO TITLE "Piano Concerto No. 3 in D minor op. 30 - 2. Intermezzo (Adagio)" PERFORMER "Lang Lang" ISRC USTE10302582 INDEX 01 00:00:00FILE "34 - Piano Concerto No. 3 in D minor op. 30 - 3. Finale (Alla breve).wav" WAVE TRACK 03 AUDIO TITLE "Piano Concerto No. 3 in D minor op. 30 - 3. Finale (Alla breve)" PERFORMER "Lang Lang" ISRC USTE10303582 INDEX 01 00:00:00 TRACK 04 AUDIO TITLE "Piano Sonata No. 2 in B flat minor op. 36 - 1. Allegro agitato" PERFORMER "Lang Lang" ISRC USTE10304524 INDEX 00 14:37:36FILE "35 - Piano Sonata No. 2 in B flat minor op. 36 - 1. Allegro agitato.wav" WAVE INDEX 01 00:00:00FILE "36 - Piano Sonata No. 2 in B flat minor op. 36 - 2. Non allegro - Lento.wav" WAVE TRACK 05 AUDIO TITLE "Piano Sonata No. 2 in B flat minor op. 36 - 2. Non allegro - Lento" PERFORMER "Lang Lang" ISRC USTE10305524 INDEX 01 00:00:00FILE "37 - Piano Sonata No. 2 in B flat minor op. 36 - 3. Allegro molto.wav" WAVE TRACK 06 AUDIO TITLE "Piano Sonata No. 2 in B flat minor op. 36 - 3. Allegro molto" PERFORMER "Lang Lang" ISRC USTE10306524 INDEX 01 00:00:00

Лог проверки качества

-----------------------
DON'T MODIFY THIS FILE
-----------------------
PERFORMER: auCDtect Task Manager, ver. 1.6.0 RC1 build 1.6.0.1Copyright (c) 2008-2010 y-soft. All rights reservedhttp://y-soft.org
ANALYZER: auCDtect: CD records authenticity detector, version 0.8.2Copyright (c) 2004 Oleg Berngardt. All rights reserved.Copyright (c) 2004 Alexander Djourik. All rights reserved.
FILE: 37 - Piano Sonata No. 2 in B flat minor op. 36 - 3. Allegro molto.flac Size: 20716399 Hash: D4ED8BE5B3DC2CADCB78A3391114F1C5 Accuracy: -m0 Conclusion: MPEG 100% Signature: D276BFFABB499E8D38EE2123072FC7765D3A7282FILE: 36 - Piano Sonata No. 2 in B flat minor op. 36 - 2. Non allegro - Lento.flac Size: 23204505 Hash: 8348EAA32A7438D842CD818C3D3C225B Accuracy: -m0 Conclusion: MPEG 100% Signature: 7665AB4C4FCE3F05AEBF126F5EDBC0386D7BF311FILE: 35 - Piano Sonata No. 2 in B flat minor op. 36 - 1. Allegro agitato.flac Size: 28064702 Hash: 481852C0CDEC9C0AB1715F970AE3DD14 Accuracy: -m0 Conclusion: MPEG 100% Signature: 48796377BF8F2AE3FF106F420E862376EB87F441FILE: 34 - Piano Concerto No. 3 in D minor op. 30 - 3. Finale (Alla breve).flac Size: 63510667 Hash: 59C04FE2D0A0711DAC99983796262ED2 Accuracy: -m0 Conclusion: ??? Signature: 63E62FFF708C55B9C15AF77669B3491176CDA730FILE: 33 - Piano Concerto No. 3 in D minor op. 30 - 2. Intermezzo (Adagio).flac Size: 44090242 Hash: 49F5F23DC68EA1B1A89872E1C3AD6032 Accuracy: -m0 Conclusion: ??? Signature: 315FA8E1232BD09EA0092711F534E2FE4F105688FILE: 32 - Piano Concerto No. 3 in D minor op. 30 - 1. Allegro ma non tanto.flac Size: 67181850 Hash: 3B3384491ED64E3BF9B08F3ABCC5C8FF Accuracy: -m0 Conclusion: ??? Signature: C50085E391AADC9FCFB2D65DE02CD7B4B8DAD1D8

Скриншот спектра частот

Доп. информация

Релиз полностью готов к воспроизведению в аудиоплеере (я ориентировался на foobar2000)При скачивании, если необходимо, переименуйте папку, в которой будет находиться альбомБольшая просьба к скачавшим поддерживать раздачу! Помогайте другим, ведь вам тоже может понадобиться помощь!Не забываем говорить "Спасибо"!Комментарии приветствуются!
[teatrix.ru].t9865.torrent 
Торрент: Зарегистрирован [ 2015-10-25 20:37 ] · 4E504F5404ABCC7B517D2014BB14FFC93E15D1FD

Скачать .torrent

Скачать

15 KB

Статус: проверено
Скачан: 0 раз
Размер: 528 MB
terms.php



Быстрый ответ

Имя:

      
Для отправки сообщений необходимо включить JavaScript
Показать сообщения:    

Текущее время: 10-Дек 15:48

Часовой пояс: UTC + 3


Вы можете начинать темы
Вы можете отвечать на сообщения
Вы не можете редактировать свои сообщения
Вы не можете удалять свои сообщения
Вы не можете голосовать в опросах
Вы не можете прикреплять файлы к сообщениям
Вы можете скачивать файлы