(Classical, contemporary, accordion) Ksenija Sidorova - FairyTales (BBC National Orchestra of Wales / Moszkowski, Trojan, Васильев, Лондонов, Grieg, Mendelssohn, Piazzolla) - 2013, FLAC (image+.cue) lossless


Статистика раздачи [Обновить пиров]
Размер:  412 MB   |    Зарегистрирован:  1 год 1 месяц   |    Скачан:  1 раз

Полного источника не было: 1 день 14 часов

Личеров:  1  [  0 KB/s  ]   Подробная статистика пиров
 
   
 
 
 

[Цитировать]

Ksenija Sidorova - FairyTales
Жанр: Classical, contemporary
Страна-производитель диска: EU
Год издания диска: 2013
Издатель (лейбл): Champs Hill Records
Номер по каталогу: CHRCD055
Дата записи: 2012
Аудиокодек: FLAC
Тип рипа: image+.cue
Битрейт аудио: lossless
Продолжительность: 01:08:36
Источник: собственный рип
Наличие сканов в содержимом раздачи: да
Треклист:
1. Moszkowski, Moritz - Caprice Espagnol
Trojan, Vaclav - Fairy Tales Concerto for Orchestra and Accordion
2. I - Let us dance into the fairy tales
3. II - The Sleepy Princess
4. III - The Magic Box
5. IV - The Enchanted Princess The Brave Princess & The Evil Dragon
6. V - The Naughty Roundabout
7. VI - The Sailor & The Enchanted Accordion
8. VII - The Acrobatic Fairy Tale
9. Vassiliev, Artem - Who's the puppet?
Grieg, Edvard - Holberg Suite
10. I - Praeludium
11. II - Sarabande
12. III - Gavotte
13. IV - Air
14. V - Rigaudon
15. Mendelssohn, Felix - Scherzo from a Midsummer Night's Dream
16. Londonov, Petr - Scherzo - Toccata
17. Piazzolla, Astor - Oblivion
Исполнители:
Ksenija Sidorova - accordion
BBC National Orchestra of Wales
Clark Rundell
- conductor

Лог создания рипа

Exact Audio Copy V1.0 beta 3 from 29. August 2011
EAC extraction logfile from 5. April 2014, 20:09
Ksenija Sidorova / FairyTales
Used drive : PIONEER BD-RW BDR-206D Adapter: 1 ID: 1
Read mode : SecureUtilize accurate stream : YesDefeat audio cache : YesMake use of C2 pointers : No
Read offset correction : 667Overread into Lead-In and Lead-Out : NoFill up missing offset samples with silence : YesDelete leading and trailing silent blocks : NoNull samples used in CRC calculations : YesUsed interface : Native Win32 interface for Win NT & 2000
Used output format : User Defined EncoderSelected bitrate : 1024 kBit/sQuality : HighAdd ID3 tag : NoCommand line compressor : H:\Program Files\Exact Audio Copy\FLAC\FLAC.EXEAdditional command line options : -V -8 -T "Date=%year%" -T "Genre=%genre%" %source%
TOC of the extracted CD
Track | Start | Length | Start sector | End sector --------------------------------------------------------- 1 | 0:00.00 | 7:38.72 | 0 | 34421 2 | 7:38.72 | 2:32.44 | 34422 | 45865 3 | 10:11.41 | 3:53.22 | 45866 | 63362 4 | 14:04.63 | 1:34.66 | 63363 | 70478 5 | 15:39.54 | 5:10.71 | 70479 | 93799 6 | 20:50.50 | 1:45.43 | 93800 | 101717 7 | 22:36.18 | 5:49.27 | 101718 | 127919 8 | 28:25.45 | 4:23.41 | 127920 | 147685 9 | 32:49.11 | 5:45.01 | 147686 | 173561 10 | 38:34.12 | 2:53.15 | 173562 | 186551 11 | 41:27.27 | 3:29.36 | 186552 | 202262 12 | 44:56.63 | 3:09.17 | 202263 | 216454 13 | 48:06.05 | 4:59.08 | 216455 | 238887 14 | 53:05.13 | 3:25.16 | 238888 | 254278 15 | 56:30.29 | 4:59.55 | 254279 | 276758 16 | 61:30.09 | 2:41.35 | 276759 | 288868 17 | 64:11.44 | 4:24.53 | 288869 | 308721
Range status and errors
Selected range
Filename L:\Audio Lossless Latvija\Ksenija Sidorova. 2013 FairyTales\Ksenija Sidorova - FairyTales.wav
Peak level 100.0 % Extraction speed 7.3 X Range quality 100.0 % Test CRC 3DACDEA1 Copy CRC 3DACDEA1 Copy OK
No errors occurred
AccurateRip summary
Track 1 not present in databaseTrack 2 not present in databaseTrack 3 not present in databaseTrack 4 not present in databaseTrack 5 not present in databaseTrack 6 not present in databaseTrack 7 not present in databaseTrack 8 not present in databaseTrack 9 not present in databaseTrack 10 not present in databaseTrack 11 not present in databaseTrack 12 not present in databaseTrack 13 not present in databaseTrack 14 not present in databaseTrack 15 not present in databaseTrack 16 not present in databaseTrack 17 not present in database
None of the tracks are present in the AccurateRip database
End of status report
==== Log checksum 63AD88D657D61023EC6A8EF2CAF6AB81A687CEC2F41C1E9D8C212824AC7C4E33 ====

Содержание индексной карты (.CUE)

REM GENRE ClassicalREM DATE 2013REM DISCID 14101411REM COMMENT "ExactAudioCopy v1.0b3"PERFORMER "Ksenija Sidorova"TITLE "FairyTales"FILE "Ksenija Sidorova - FairyTales.flac" WAVE TRACK 01 AUDIO TITLE "Moritz Moszkowski. Caprice Espagnol" PERFORMER "Ksenija Sidorova" INDEX 01 00:00:00 TRACK 02 AUDIO TITLE "Vaclav Trojan. Fairy Tales Concerto for Orchestra and Accordion - I. Let us D..." PERFORMER "Ksenija Sidorova" INDEX 01 07:38:72 TRACK 03 AUDIO TITLE "Vaclav Trojan. Fairy Tales Concerto for Orchestra and Accordion - II. The Sle..." PERFORMER "Ksenija Sidorova" INDEX 01 10:11:41 TRACK 04 AUDIO TITLE "Vaclav Trojan. Fairy Tales Concerto for Orchestra and Accordion - III. The Ma..." PERFORMER "Ksenija Sidorova" INDEX 01 14:04:63 TRACK 05 AUDIO TITLE "Vaclav Trojan. Fairy Tales Concerto for Orchestra and Accordion - IV. The Enc..." PERFORMER "Ksenija Sidorova" INDEX 01 15:39:54 TRACK 06 AUDIO TITLE "Vaclav Trojan. Fairy Tales Concerto for Orchestra and Accordion - V. The Naug..." PERFORMER "Ksenija Sidorova" INDEX 01 20:50:50 TRACK 07 AUDIO TITLE "Vaclav Trojan. Fairy Tales Concerto for Orchestra and Accordion - VI. The Sai..." PERFORMER "Ksenija Sidorova" INDEX 01 22:36:18 TRACK 08 AUDIO TITLE "Vaclav Trojan. Fairy Tales Concerto for Orchestra and Accordion - VII. The Ac..." PERFORMER "Ksenija Sidorova" INDEX 01 28:25:45 TRACK 09 AUDIO TITLE "Artem Vassiliev. Who's the Puppet?" PERFORMER "Ksenija Sidorova" INDEX 01 32:49:11 TRACK 10 AUDIO TITLE "Edvard Grieg. Holberg Suite - I. Praeludium" PERFORMER "Ksenija Sidorova" INDEX 01 38:34:12 TRACK 11 AUDIO TITLE "Edvard Grieg. Holberg Suite - II. Sarabande" PERFORMER "Ksenija Sidorova" INDEX 01 41:27:27 TRACK 12 AUDIO TITLE "Edvard Grieg. Holberg Suite - III. Gavotte" PERFORMER "Ksenija Sidorova" INDEX 01 44:56:63 TRACK 13 AUDIO TITLE "Edvard Grieg. Holberg Suite - IV. Air" PERFORMER "Ksenija Sidorova" INDEX 01 48:06:05 TRACK 14 AUDIO TITLE "Edvard Grieg. Holberg Suite - V. Rigaudon" PERFORMER "Ksenija Sidorova" INDEX 01 53:05:13 TRACK 15 AUDIO TITLE "Felix Mendelssohn. Scherzo from a Midsummer Night's Dream" PERFORMER "Ksenija Sidorova" INDEX 01 56:30:29 TRACK 16 AUDIO TITLE "Petr Londonov. Scherzo-Toccata" PERFORMER "Ksenija Sidorova" INDEX 01 61:30:09 TRACK 17 AUDIO TITLE "Astor Pizzolla. Oblivion" PERFORMER "Ksenija Sidorova, Thomas Gould" INDEX 01 64:11:44
[teatrix.ru].t9869.torrent 
Торрент: Зарегистрирован [ 2015-10-25 20:37 ] · 57385125511A2DE6B5ECDC7CF43CBA24808C166B

Скачать .torrent

Скачать

17 KB

Статус: проверено
Скачан: 1 раз
Размер: 412 MB
terms.php



Быстрый ответ

Имя:

      
Для отправки сообщений необходимо включить JavaScript
Показать сообщения:    

Текущее время: 06-Дек 17:10

Часовой пояс: UTC + 3


Вы можете начинать темы
Вы можете отвечать на сообщения
Вы не можете редактировать свои сообщения
Вы не можете удалять свои сообщения
Вы не можете голосовать в опросах
Вы не можете прикреплять файлы к сообщениям
Вы можете скачивать файлы