(Classical) J. S. Bach - Violinkonzerten I, II; "Ciaccona" aus Partita II; "Air" aus Orchestersuite III, "Gavotte" aus Partita III (Joshua Bell, Academy of St Martin in the Fields) - 2014, FLAC (tracks+.cue) lossless


Статистика раздачи [Обновить пиров]
Размер:  261 MB   |    Зарегистрирован:  1 год 1 месяц   |    Скачан:  0 раз

Полного источника не было: Никогда

Личеров:  1  [  0 KB/s  ]   Подробная статистика пиров
 
   
 
 
 

[Цитировать]

Johann Sebastian BachJOSHUA BELLACADEMY OF ST MARTIN IN THE FIELDS- Жанр: Classical
Год издания диска: 2014
Издатель (лейбл): Sony Classical
Номер по каталогу: 88843087792
Дата записи: 2013
Аудиокодек: FLAC
Тип рипа: tracks+.cue
Битрейт аудио: lossless
Продолжительность: 00:50:02
Источник: IsraBox
Купить: Presto Classical
Наличие сканов: Front-
I. Violin Concerto No. 1 in A Minor, BWV 1041
(01) I. Allegro (3:22)
(02) II. Andante (6:33)
(03) III. Allegro assai (3:28)
II. Violin Concerto No. 2 in E Major BWV 1042
(04) I. Allegro (6:55)
(05) II. Adagio (5:54)
(06) III. Allegro assai (2:34)
III. Partita No. 2 in D Minor, BWV 1004
(07) Chaconne (Orchestral arrangement by Mendelssohn) (13:29)
IV. Orchestral Suite No. 3 in D Major, BWV 1068
(08) II. Air (4:56)
V. Partita for Violin Solo No. 3 in E Major, BWV 1006
(09) Gavotte (Rondeau) (2:50)-Исполнители:
Joshua Bell - violin
Academy of St Martin in the Fields-Отчёты

Лог создания рипа

Exact Audio Copy V1.0 beta 3 from 29. August 2011
EAC extraction logfile from 16. October 2014, 0:09
Joshua Bell & Academy of St. Martin in the Fields / Bach
Used drive : TSSTcorp CDDVDW Adapter: 0 ID: 0
Read mode : SecureUtilize accurate stream : YesDefeat audio cache : YesMake use of C2 pointers : No
Read offset correction : 6Overread into Lead-In and Lead-Out : NoFill up missing offset samples with silence : YesDelete leading and trailing silent blocks : NoNull samples used in CRC calculations : YesUsed interface : Native Win32 interface for Win NT & 2000Gap handling : Appended to previous track
Used output format : User Defined EncoderSelected bitrate : 768 kBit/sQuality : HighAdd ID3 tag : NoCommand line compressor : C:\Program Files (x86)\Exact Audio Copy\FLAC\FLAC.EXEAdditional command line options : -8 -V -T "ARTIST=%artist%" -T "TITLE=%title%" -T "ALBUM=%albumtitle%" -T "DATE=%year%" -T "TRACKNUMBER=%tracknr%" -T "GENRE=%genre%" %source%
TOC of the extracted CD
Track | Start | Length | Start sector | End sector --------------------------------------------------------- 1 | 0:00.00 | 3:21.62 | 0 | 15136 2 | 3:21.62 | 6:33.21 | 15137 | 44632 3 | 9:55.08 | 3:28.17 | 44633 | 60249 4 | 13:23.25 | 6:55.30 | 60250 | 91404 5 | 20:18.55 | 5:53.71 | 91405 | 117950 6 | 26:12.51 | 2:34.21 | 117951 | 129521 7 | 28:46.72 | 13:29.26 | 129522 | 190222 8 | 42:16.23 | 4:55.50 | 190223 | 212397 9 | 47:11.73 | 2:49.54 | 212398 | 225126
Track 1
Filename D:\What uploads\Joshua Bell & Acadamy of St. Martin In The Fields - (2014) Bach [Sony Classical - 88843087792] CD\Joshua Bell & Academy of St. Martin in the Fields - Bach (2014) FLAC\01 - Violin Concerto No. 1 in A Minor, BWV 1041- I. Allegro
Pre-gap length 0:00:02.00
Peak level 89.1 % Extraction speed 2.3 X Track quality 99.9 % Test CRC 5C05039B Copy CRC 5C05039B Track not present in AccurateRip database Copy OK
Track 2
Filename D:\What uploads\Joshua Bell & Acadamy of St. Martin In The Fields - (2014) Bach [Sony Classical - 88843087792] CD\Joshua Bell & Academy of St. Martin in the Fields - Bach (2014) FLAC\02 - Violin Concerto No. 1 in A Minor, BWV 1041- II. Andant
Pre-gap length 0:00:04.69
Peak level 89.1 % Extraction speed 3.5 X Track quality 100.0 % Test CRC CA3476EC Copy CRC CA3476EC Track not present in AccurateRip database Copy OK
Track 3
Filename D:\What uploads\Joshua Bell & Acadamy of St. Martin In The Fields - (2014) Bach [Sony Classical - 88843087792] CD\Joshua Bell & Academy of St. Martin in the Fields - Bach (2014) FLAC\03 - Violin Concerto No. 1 in A Minor, BWV 1041- III. Alleg
Pre-gap length 0:00:02.61
Peak level 89.1 % Extraction speed 3.5 X Track quality 100.0 % Test CRC 869F4483 Copy CRC 869F4483 Track not present in AccurateRip database Copy OK
Track 4
Filename D:\What uploads\Joshua Bell & Acadamy of St. Martin In The Fields - (2014) Bach [Sony Classical - 88843087792] CD\Joshua Bell & Academy of St. Martin in the Fields - Bach (2014) FLAC\04 - Violin Concerto No. 2 in E Major BWV 1042- I. Allegro.
Pre-gap length 0:00:05.80
Peak level 89.1 % Extraction speed 4.2 X Track quality 100.0 % Test CRC A1B17F8B Copy CRC A1B17F8B Track not present in AccurateRip database Copy OK
Track 5
Filename D:\What uploads\Joshua Bell & Acadamy of St. Martin In The Fields - (2014) Bach [Sony Classical - 88843087792] CD\Joshua Bell & Academy of St. Martin in the Fields - Bach (2014) FLAC\05 - Violin Concerto No. 2 in E Major BWV 1042- II. Adagio.
Pre-gap length 0:00:03.88
Peak level 89.1 % Extraction speed 4.4 X Track quality 100.0 % Test CRC D87C494C Copy CRC D87C494C Track not present in AccurateRip database Copy OK
Track 6
Filename D:\What uploads\Joshua Bell & Acadamy of St. Martin In The Fields - (2014) Bach [Sony Classical - 88843087792] CD\Joshua Bell & Academy of St. Martin in the Fields - Bach (2014) FLAC\06 - Violin Concerto No. 2 in E Major BWV 1042- III. Allegr
Pre-gap length 0:00:02.84
Peak level 89.1 % Extraction speed 4.1 X Track quality 100.0 % Test CRC 9E867EBA Copy CRC 9E867EBA Track not present in AccurateRip database Copy OK
Track 7
Filename D:\What uploads\Joshua Bell & Acadamy of St. Martin In The Fields - (2014) Bach [Sony Classical - 88843087792] CD\Joshua Bell & Academy of St. Martin in the Fields - Bach (2014) FLAC\07 - Partita No. 2 in D Minor, BWV 1004.wav
Pre-gap length 0:00:05.86
Peak level 89.1 % Extraction speed 5.3 X Track quality 100.0 % Test CRC 92345CFE Copy CRC 92345CFE Track not present in AccurateRip database Copy OK
Track 8
Filename D:\What uploads\Joshua Bell & Acadamy of St. Martin In The Fields - (2014) Bach [Sony Classical - 88843087792] CD\Joshua Bell & Academy of St. Martin in the Fields - Bach (2014) FLAC\08 - Orchestral Suite No. 3 in D Major, BWV 1068- II. Air.w
Pre-gap length 0:00:02.81
Peak level 82.2 % Extraction speed 5.3 X Track quality 100.0 % Test CRC 8EF93F15 Copy CRC 8EF93F15 Track not present in AccurateRip database Copy OK
Track 9
Filename D:\What uploads\Joshua Bell & Acadamy of St. Martin In The Fields - (2014) Bach [Sony Classical - 88843087792] CD\Joshua Bell & Academy of St. Martin in the Fields - Bach (2014) FLAC\09 - Partita for Violin Solo No. 3 in E Major, BWV 1006.wav
Pre-gap length 0:00:03.25
Peak level 89.1 % Extraction speed 5.0 X Track quality 100.0 % Test CRC EAC2A059 Copy CRC EAC2A059 Track not present in AccurateRip database Copy OK
None of the tracks are present in the AccurateRip database
No errors occurred
End of status report
==== Log checksum 1E2AC8C7D75882B12B934BAA199F24A4A7EF38A727BC560BA4DAEA7DDF9AC9D1 ====

Содержание индексной карты (.CUE)

REM GENRE Classical
REM DATE 2014
REM DISCID 730BB909
REM COMMENT "ExactAudioCopy v1.0b3"
PERFORMER "Joshua Bell, Academy of St Martin in the Fields"
TITLE "Joshua Bell: Bach"
FILE "01 - Violin Concerto No. 1 in A Minor, BWV 1041- I. Allegro.wav" WAVE
TRACK 01 AUDIO
TITLE "Violin Concerto No. 1 in A Minor, BWV 1041: I. Allegro"
PERFORMER "Joshua Bell, Academy of St Martin in the Fields"
INDEX 01 00:00:00
TRACK 02 AUDIO
TITLE "Violin Concerto No. 1 in A Minor, BWV 1041: II. Andante"
PERFORMER "Joshua Bell, Academy of St Martin in the Fields"
INDEX 00 03:17:10
FILE "02 - Violin Concerto No. 1 in A Minor, BWV 1041- II. Andante.wav" WAVE
INDEX 01 00:00:00
TRACK 03 AUDIO
TITLE "Violin Concerto No. 1 in A Minor, BWV 1041: III. Allegro assai"
PERFORMER "Joshua Bell, Academy of St Martin in the Fields"
INDEX 00 06:30:50
FILE "03 - Violin Concerto No. 1 in A Minor, BWV 1041- III. Allegro assai.wav" WAVE
INDEX 01 00:00:00
TRACK 04 AUDIO
TITLE "Violin Concerto No. 2 in E Major BWV 1042: I. Allegro"
PERFORMER "Joshua Bell, Academy of St Martin in the Fields"
INDEX 00 03:22:32
FILE "04 - Violin Concerto No. 2 in E Major BWV 1042- I. Allegro.wav" WAVE
INDEX 01 00:00:00
TRACK 05 AUDIO
TITLE "Violin Concerto No. 2 in E Major BWV 1042: II. Adagio"
PERFORMER "Joshua Bell, Academy of St Martin in the Fields"
INDEX 00 06:51:39
FILE "05 - Violin Concerto No. 2 in E Major BWV 1042- II. Adagio.wav" WAVE
INDEX 01 00:00:00
TRACK 06 AUDIO
TITLE "Violin Concerto No. 2 in E Major BWV 1042: III. Allegro assai"
PERFORMER "Joshua Bell, Academy of St Martin in the Fields"
INDEX 00 05:51:08
FILE "6 - Violin Concerto No. 2 in E Major BWV 1042- III. Allegro assai.wav" WAVE
INDEX 01 00:00:00
TRACK 07 AUDIO
TITLE "Partita No. 2 in D Minor, BWV 1004"
PERFORMER "Joshua Bell, Academy of St Martin in the Fields"
INDEX 00 02:28:31
FILE "07 - Partita No. 2 in D Minor, BWV 1004.wav" WAVE
INDEX 01 00:00:00
TRACK 08 AUDIO
TITLE "Orchestral Suite No. 3 in D Major, BWV 1068: II. Air"
PERFORMER "Joshua Bell, Academy of St Martin in the Fields"
INDEX 00 13:26:40
FILE "08 - Orchestral Suite No. 3 in D Major, BWV 1068- II. Air.wav" WAVE
INDEX 01 00:00:00
TRACK 09 AUDIO
TITLE "Partita for Violin Solo No. 3 in E Major, BWV 1006"
PERFORMER "Joshua Bell, Academy of St Martin in the Fields"
INDEX 00 04:52:31
FILE "09 - Partita for Violin Solo No. 3 in E Major, BWV 1006.wav" WAVE
INDEX 01 00:00:00[/pre]

Лог проверки качества

-----------------------
DON'T MODIFY THIS FILE
-----------------------
PERFORMER: auCDtect Task Manager, ver. 1.6.0 RC1 build 1.6.0.1Copyright (c) 2008-2010 y-soft. All rights reservedhttp://y-soft.org
ANALYZER: auCDtect: CD records authenticity detector, version 0.8.2Copyright (c) 2004 Oleg Berngardt. All rights reserved.Copyright (c) 2004 Alexander Djourik. All rights reserved.
FILE: 09 - Partita for Violin Solo No. 3 in E Major, BWV 1006.flac Size: 15785782 Hash: 8D0BD40ECB53625DD269F439B2674C84 Accuracy: -m0 Conclusion: CDDA 100% Signature: 3D1962B58D75CBAACF61A0D86BF9C2E0D68F3A21FILE: 08 - Orchestral Suite No. 3 in D Major, BWV 1068- II. Air.flac Size: 26175814 Hash: 2A983CC0E7CD99114752BBFAE6CEC142 Accuracy: -m0 Conclusion: CDDA 100% Signature: CFA32A57FEE75278AC91AE7A4AC8DF919BE34677FILE: 07 - Partita No. 2 in D Minor, BWV 1004.flac Size: 72529504 Hash: EE4FACB6B2E273BD7EE4C28A76C1556E Accuracy: -m0 Conclusion: CDDA 99% Signature: 58AA865EECB50F47126C9B4374CC84C28BBC59E8FILE: 06 - Violin Concerto No. 2 in E Major BWV 1042- III. Allegro assai.flac Size: 15093382 Hash: 4876795AE38968BDE7322E2721DFB70A Accuracy: -m0 Conclusion: CDDA 100% Signature: DAFF46BAF58233CE90699997272B9162AC6844A1FILE: 05 - Violin Concerto No. 2 in E Major BWV 1042- II. Adagio.flac Size: 29591748 Hash: 9E280FEB54BD6800078659ADD4CF934D Accuracy: -m0 Conclusion: CDDA 100% Signature: 9A73BA0A53B4BE7936A2C62DE87B5B4F6EF214FFFILE: 04 - Violin Concerto No. 2 in E Major BWV 1042- I. Allegro.flac Size: 41392829 Hash: 18D634E6295B369CA3D2BAFFAB6E2259 Accuracy: -m0 Conclusion: CDDA 100% Signature: 79D4BA0792113A3A3184098D71CB6A4882F44817FILE: 03 - Violin Concerto No. 1 in A Minor, BWV 1041- III. Allegro assai.flac Size: 21111424 Hash: 803FA04C3F384D289D2BC9CC2016AAA8 Accuracy: -m0 Conclusion: CDDA 100% Signature: C0186D5E4DA2757B894D949B2FB8A0662549FD89FILE: 02 - Violin Concerto No. 1 in A Minor, BWV 1041- II. Andante.flac Size: 32142509 Hash: E506D4CF9A1FC69DF6596FC0496AC97A Accuracy: -m0 Conclusion: CDDA 99% Signature: F09A63F1680C1514A2D71E01AAFA19E1F52C5640FILE: 01 - Violin Concerto No. 1 in A Minor, BWV 1041- I. Allegro.flac Size: 20056695 Hash: FF05AF39863FC0A1E456BCA3ECE2BB14 Accuracy: -m0 Conclusion: CDDA 100% Signature: 2F8720A03752B839492E977CD3D0F95759A0C8B2

Доп. информация

Релиз полностью готов к воспроизведению в аудиоплеере (я ориентировался на foobar2000)При скачивании, если необходимо, переименуйте папку, в которой будет находиться альбомБольшая просьба к скачавшим поддерживать раздачу! Помогайте другим, ведь вам тоже может понадобиться помощь!Не забываем говорить "Спасибо"!Комментарии приветствуются!
[teatrix.ru].t9870.torrent 
Торрент: Зарегистрирован [ 2015-10-25 20:37 ] · 0F1B27CF5952AD42A90204C2CB1D6244403F163D

Скачать .torrent

Скачать

12 KB

Статус: проверено
Скачан: 0 раз
Размер: 261 MB
terms.php



Быстрый ответ

Имя:

      
Для отправки сообщений необходимо включить JavaScript
Показать сообщения:    

Текущее время: 08-Дек 07:07

Часовой пояс: UTC + 3


Вы можете начинать темы
Вы можете отвечать на сообщения
Вы не можете редактировать свои сообщения
Вы не можете удалять свои сообщения
Вы не можете голосовать в опросах
Вы не можете прикреплять файлы к сообщениям
Вы можете скачивать файлы