(Classical) Johann Sebastian Bach - Die Brandenburgische Konzerte - Dunedin Consort, John Butt - 2013, FLAC (image+.cue) lossless


Статистика раздачи [Обновить пиров]
Размер:  505 MB   |    Зарегистрирован:  1 год 1 месяц   |    Скачан:  0 раз

Полного источника не было: Никогда

Личеров:  2  [  0 KB/s  ]   Подробная статистика пиров
 
   
 
 
 

[Цитировать]

Johann Sebastian Bach - Die Brandenburgische Konzerte - Dunedin Consort, John Butt
Жанр: Classical
Страна-производитель диска: UK
Год издания диска: 2013
Издатель (лейбл): Linn Records
Номер по каталогу: CKD 430
Дата записи: 2012
Аудиокодек: FLAC
Тип рипа: image+.cue
Битрейт аудио: lossless
Продолжительность: 93:18
Источник: собственный рип
Наличие сканов в содержимом раздачи: да
Треклист:
Johann Sebastian Bach (1685-1750)
CD1
[1]-[4] Brandenburg Concerto No.1 in F major, BWV 1046
[5]-[7] Brandenburg Concerto No.2 in F major, BWV 1047
[8]-[10] Brandenburg Concerto No.3 in G major, BWV 1048
CD2
[1]-[3] Brandenburg Concerto No.4 in G major, BWV 1049
[4]-[6] Brandenburg Concerto No.5 in D major, BWV 1050
[7]-[9] Brandenburg Concerto No.6 in B flat major, BWV 1051
Исполнители:
Dunedin Consort
John Butt

Лог создания рипа: CD1

Exact Audio Copy V1.0 beta 3 from 29. August 2011
EAC extraction logfile from 11. October 2014, 21:44
Dunedin Consort, John Butt / Bach - Brandenburg Concertos - CD1
Used drive : HL-DT-STDVDRAM GU70N Adapter: 0 ID: 0
Read mode : SecureUtilize accurate stream : YesDefeat audio cache : YesMake use of C2 pointers : No
Read offset correction : 48Overread into Lead-In and Lead-Out : NoFill up missing offset samples with silence : YesDelete leading and trailing silent blocks : NoNull samples used in CRC calculations : YesUsed interface : Native Win32 interface for Win NT & 2000
Used output format : User Defined EncoderSelected bitrate : 128 kBit/sQuality : HighAdd ID3 tag : NoCommand line compressor : C:\Program Files (x86)\Exact Audio Copy\Flac\flac.exeAdditional command line options : -V -8 -T "Date=%year%" -T "Genre=%genre%" %source%
TOC of the extracted CD
Track | Start | Length | Start sector | End sector --------------------------------------------------------- 1 | 0:00.00 | 4:02.21 | 0 | 18170 2 | 4:02.21 | 3:43.66 | 18171 | 34961 3 | 7:46.12 | 4:11.25 | 34962 | 53811 4 | 11:57.37 | 9:00.33 | 53812 | 94344 5 | 20:57.70 | 4:51.11 | 94345 | 116180 6 | 25:49.06 | 3:18.05 | 116181 | 131035 7 | 29:07.11 | 2:54.06 | 131036 | 144091 8 | 32:01.17 | 5:30.01 | 144092 | 168842 9 | 37:31.18 | 0:24.72 | 168843 | 170714 10 | 37:56.15 | 4:46.06 | 170715 | 192170
Range status and errors
Selected range
Filename C:\temp\Bach - Six Brandenburg Concertos - Dunedin Consort, Butt\Bach - Brandenburg Concertos - CD1.wav
Peak level 95.1 % Extraction speed 2.0 X Range quality 100.0 % Test CRC EF10A109 Copy CRC EF10A109 Copy OK
No errors occurred
AccurateRip summary
Track 1 accurately ripped (confidence 7) [67F848AB] (AR v2)Track 2 accurately ripped (confidence 8) [71C83244] (AR v2)Track 3 accurately ripped (confidence 8) [B6F5334B] (AR v2)Track 4 accurately ripped (confidence 8) [B51E6B64] (AR v2)Track 5 accurately ripped (confidence 7) [142EC891] (AR v2)Track 6 accurately ripped (confidence 8) [2E4C6EE4] (AR v2)Track 7 accurately ripped (confidence 7) [657795C0] (AR v2)Track 8 accurately ripped (confidence 7) [050A8A76] (AR v2)Track 9 accurately ripped (confidence 8) [3350D29D] (AR v2)Track 10 accurately ripped (confidence 8) [0EE7BDE5] (AR v2)
All tracks accurately ripped
End of status report
==== Log checksum 075DF2479E84BFA5C22E6EFC0B065731BDC7492F23264F7146BDAAAAC87F523D ====

Лог создания рипа: CD2

Exact Audio Copy V1.0 beta 3 from 29. August 2011
EAC extraction logfile from 11. October 2014, 22:37
Dunedin Consort, John Butt / Bach - Brandenburg Concertos - CD2
Used drive : HL-DT-STDVDRAM GU70N Adapter: 0 ID: 0
Read mode : SecureUtilize accurate stream : YesDefeat audio cache : YesMake use of C2 pointers : No
Read offset correction : 48Overread into Lead-In and Lead-Out : NoFill up missing offset samples with silence : YesDelete leading and trailing silent blocks : NoNull samples used in CRC calculations : YesUsed interface : Native Win32 interface for Win NT & 2000
Used output format : User Defined EncoderSelected bitrate : 128 kBit/sQuality : HighAdd ID3 tag : NoCommand line compressor : C:\Program Files (x86)\Exact Audio Copy\Flac\flac.exeAdditional command line options : -V -8 -T "Date=%year%" -T "Genre=%genre%" %source%
TOC of the extracted CD
Track | Start | Length | Start sector | End sector --------------------------------------------------------- 1 | 0:00.00 | 6:44.74 | 0 | 30373 2 | 6:44.74 | 3:20.11 | 30374 | 45384 3 | 10:05.10 | 4:40.65 | 45385 | 66449 4 | 14:46.00 | 8:59.74 | 66450 | 106948 5 | 23:45.74 | 5:06.36 | 106949 | 129934 6 | 28:52.35 | 5:12.12 | 129935 | 153346 7 | 34:04.47 | 6:01.11 | 153347 | 180432 8 | 40:05.58 | 4:52.17 | 180433 | 202349 9 | 44:58.00 | 5:34.08 | 202350 | 227407
Range status and errors
Selected range
Filename C:\temp\Bach - Six Brandenburg Concertos - Dunedin Consort, Butt\Bach - Brandenburg Concertos - CD2.wav
Peak level 91.2 % Extraction speed 2.1 X Range quality 100.0 % Test CRC DE99739A Copy CRC DE99739A Copy OK
No errors occurred
AccurateRip summary
Track 1 accurately ripped (confidence 7) [DD5B5345] (AR v2)Track 2 accurately ripped (confidence 7) [4A95810B] (AR v2)Track 3 accurately ripped (confidence 7) [94E7FE72] (AR v2)Track 4 accurately ripped (confidence 7) [56E9CCE7] (AR v2)Track 5 accurately ripped (confidence 7) [8FE4C707] (AR v2)Track 6 accurately ripped (confidence 7) [4DAC52A7] (AR v2)Track 7 accurately ripped (confidence 7) [8D47FC05] (AR v2)Track 8 accurately ripped (confidence 7) [C838BED0] (AR v2)Track 9 accurately ripped (confidence 7) [F177BD87] (AR v2)
All tracks accurately ripped
End of status report
==== Log checksum E69A4C72E5E5D496C29133D265BE5EC6378E6E0F9F79349E08887F349DE644BA ====
[teatrix.ru].t9871.torrent 
Торрент: Зарегистрирован [ 2015-10-25 20:37 ] · C982D59CBF7B734616B4045642E65B92DF3FA212

Скачать .torrent

Скачать

41 KB

Статус: проверено
Скачан: 0 раз
Размер: 505 MB
terms.php



Быстрый ответ

Имя:

      
Для отправки сообщений необходимо включить JavaScript
Показать сообщения:    

Текущее время: 09-Дек 16:36

Часовой пояс: UTC + 3


Вы можете начинать темы
Вы можете отвечать на сообщения
Вы не можете редактировать свои сообщения
Вы не можете удалять свои сообщения
Вы не можете голосовать в опросах
Вы не можете прикреплять файлы к сообщениям
Вы можете скачивать файлы