(Classical) Чайковский - Концерты для фортепиано с оркестром No.1-3/Мусоргский - Картинки с выставки/Балакирев - Исламей (Gary Graffman; Cleveland Orchestra, George Szell; Philadelphia Orchestra, Eugene Ormandy) - 2005, FLAC (tracks+.cue) lossless


Статистика раздачи [Обновить пиров]
Размер:  566 MB   |    Зарегистрирован:  1 год 1 месяц   |    Скачан:  0 раз

Полного источника не было: Никогда

Личеров:  1  [  0 KB/s  ]   Подробная статистика пиров
 
   
 
 
 

[Цитировать]

Петр Чайковский - Концерты для фортепиано с оркестром No. 1-3
М.П.Мусоргский - «Картинки с выставки»
М.А.Балакирев - «Исламей»
P.I.Tchaikovsky - Piano Concertos No. 1-3
M.P.Mussorgsky - «Pictures at an Exhibition»
M.A.Balakirev - «Islamey»
- Жанр: Classical
Страна-производитель диска: Italy
Год издания диска: 2005
Дата записи: 1962-1969
Оригинальные издания: 1963-1970
Издатель (лейбл): Sony Classical
Номер по каталогу: S2K 94737
Аудиокодек: FLAC
Тип рипа: tracks+.cue
Битрейт аудио: lossless
Продолжительность: 02:07:16
Источник: Exvagos
Релизер: Caloriana
Купить: ArkivMusic
Наличие сканов: да-Gary Graffman, piano
The Cleveland Orchestra; George Szell, conductor
The Philadelphia Orchestra; Eugene Ormandy, conductor
Треклист и исполнителиCD 1 (01:10:20)
I. Tchaikovsky - Piano Concerto No. 1 in B flat minor, Op. 23
(01) Allegro non troppo e molto maestoso (19:51)
(02) Andantino simplice (7:13)
(03) Allegro con fuoco; Allegro vivo (6:58)
Gary Graffman, The Cleveland Orchestra, George Szell
II. Tchaikovsky - Piano Concerto No. 2 in G major, Op. 44
(04) Allegro brillante e molto vivace (20:54)
(05) Andante non troppo (7:51)
(06) Allegro con fuoco (7:33)
Gary Graffman, The Philadelphia Orchestra, Eugene Ormandy
CD 2 (00:56:56)
I. (01) Tchaikovsky - Piano Concerto No. 3 in E flat major, Op. 75: Allegro brillante (15:17)
Gary Graffman, The Philadelphia Orchestra, Eugene Ormandy
II. Mussorgsky - Pictures at an Exhibition
(02) Promenade (1:34)
(03) Gnomus (2:47)
(04) Promenade (0:58)
(05) The Old Castle (4:05)
(06) Promenade (0:29)
(07) Les Tuileries (1:02)
(08) Bydlo (3:20)
(09) Promenade (0:44)
(10) Ballet of the Unhatched Chicks (1:05)
(11) Two Polish Jews (2:20)
(12) Promenade (1:32)
(13) The Market at Limoges (1:16)
(14) The Catacombs (3:54)
(15) The Hut of Baba Yaga (3:03)
(16) The Great Gate of Kiev (5:18)
Gary Graffman
III. (17) Balakirev - Islamey (8:12)
Gary Graffman

ОтчётыCD 1Лог создания рипа

Exact Audio Copy V1.0 beta 3 from 29. August 2011
EAC extraction logfile from 16. November 2012, 15:53
Gary Graffman, George Szell, Eugene Ormandy / Tchaikovsky - Piano Concertos Nos.1 & 2 (Disc 1)
Used drive : PIONEER DVD-RW DVR-112L Adapter: 6 ID: 0
Read mode : SecureUtilize accurate stream : YesDefeat audio cache : YesMake use of C2 pointers : No
Read offset correction : 48Overread into Lead-In and Lead-Out : NoFill up missing offset samples with silence : YesDelete leading and trailing silent blocks : NoNull samples used in CRC calculations : YesUsed interface : Native Win32 interface for Win NT & 2000Gap handling : Appended to previous track
Used output format : Internal WAV RoutinesSample format : 44.100 Hz; 16 Bit; Stereo
TOC of the extracted CD
Track | Start | Length | Start sector | End sector --------------------------------------------------------- 1 | 0:00.00 | 19:51.31 | 0 | 89355 2 | 19:51.31 | 7:12.59 | 89356 | 121814 3 | 27:04.15 | 6:58.15 | 121815 | 153179 4 | 34:02.30 | 20:53.45 | 153180 | 247199 5 | 54:56.00 | 7:51.19 | 247200 | 282543 6 | 62:47.19 | 7:32.39 | 282544 | 316482
Track 1
Filename D:\Torrents\Tchaikovsky Three Piano Concerti, Graffman, Szell, Ormandy [2005 compilation] FLAC\Disc 1 of 2\01. Graffman,Szell Concerto No.1-1.Allegro non troppo e molto masestoso Allegro con spirito.wav
Pre-gap length 0:00:02.00
Peak level 97.5 % Extraction speed 6.3 X Track quality 100.0 % Test CRC 63C2F565 Copy CRC 63C2F565 Cannot be verified as accurate (confidence 2) [901ED49D], AccurateRip returned [D113F45A] (AR v2) Copy OK
Track 2
Filename D:\Torrents\Tchaikovsky Three Piano Concerti, Graffman, Szell, Ormandy [2005 compilation] FLAC\Disc 1 of 2\02. Graffman,Szell Concerto No.1-2.Andantino semplice.wav
Pre-gap length 0:00:03.32
Peak level 60.7 % Extraction speed 7.2 X Track quality 100.0 % Test CRC 07EC547D Copy CRC 07EC547D Cannot be verified as accurate (confidence 2) [F98A99B7], AccurateRip returned [2EDC4FCF] (AR v2) Copy OK
Track 3
Filename D:\Torrents\Tchaikovsky Three Piano Concerti, Graffman, Szell, Ormandy [2005 compilation] FLAC\Disc 1 of 2\03. Graffman,Szell Concerto No.1-3.Allegro con fuoco.wav
Pre-gap length 0:00:05.51
Peak level 98.2 % Extraction speed 7.8 X Track quality 100.0 % Test CRC 784683BF Copy CRC 784683BF Cannot be verified as accurate (confidence 2) [9CC7BFC2], AccurateRip returned [4AC6AB6C] (AR v2) Copy OK
Track 4
Filename D:\Torrents\Tchaikovsky Three Piano Concerti, Graffman, Szell, Ormandy [2005 compilation] FLAC\Disc 1 of 2\04. Graffman,Ormandy Concerto No.2-1.Allegro brillante.wav
Pre-gap length 0:00:09.32
Peak level 79.5 % Extraction speed 8.9 X Track quality 99.9 % Test CRC 33E8068D Copy CRC 33E8068D Cannot be verified as accurate (confidence 2) [A60129D6], AccurateRip returned [9020227D] (AR v2) Copy OK
Track 5
Filename D:\Torrents\Tchaikovsky Three Piano Concerti, Graffman, Szell, Ormandy [2005 compilation] FLAC\Disc 1 of 2\05. Graffman,Ormandy Concerto No.2-2. Andante non troppo.wav
Pre-gap length 0:00:03.69
Peak level 56.0 % Extraction speed 9.5 X Track quality 100.0 % Test CRC 6D18F4EF Copy CRC 6D18F4EF Cannot be verified as accurate (confidence 2) [7E449A9C], AccurateRip returned [5E57A01F] (AR v2) Copy OK
Track 6
Filename D:\Torrents\Tchaikovsky Three Piano Concerti, Graffman, Szell, Ormandy [2005 compilation] FLAC\Disc 1 of 2\06. Graffman,Ormandy Concerto No.2-3.Allegro con fuoco.wav
Pre-gap length 0:00:04.50
Peak level 80.0 % Extraction speed 9.2 X Track quality 99.9 % Test CRC 3C6721F6 Copy CRC 3C6721F6 Cannot be verified as accurate (confidence 2) [5744A7F8], AccurateRip returned [7DDAD222] (AR v2) Copy OK
No tracks could be verified as accurateYou may have a different pressing from the one(s) in the database
No errors occurred
End of status report
==== Log checksum 3E5D664E4B626829B5252B2948C3694B68FE6737316BD835644C22C751E972FE ====
------------------------------------------------------------
Exact Audio Copy V1.0 beta 3 from 29. August 2011
EAC extraction logfile from 16. November 2012, 15:54
Gary Graffman, George Szell, Eugene Ormandy / Tchaikovsky - Piano Concertos Nos.1 & 2 (Disc 1)
Used drive : PIONEER DVD-RW DVR-112L Adapter: 6 ID: 0
Read mode : SecureUtilize accurate stream : YesDefeat audio cache : YesMake use of C2 pointers : No
Read offset correction : 48Overread into Lead-In and Lead-Out : NoFill up missing offset samples with silence : YesDelete leading and trailing silent blocks : NoNull samples used in CRC calculations : YesUsed interface : Native Win32 interface for Win NT & 2000Gap handling : Appended to previous track
Used output format : Internal WAV RoutinesSample format : 44.100 Hz; 16 Bit; Stereo
TOC of the extracted CD
Track | Start | Length | Start sector | End sector --------------------------------------------------------- 1 | 0:00.00 | 19:51.31 | 0 | 89355 2 | 19:51.31 | 7:12.59 | 89356 | 121814 3 | 27:04.15 | 6:58.15 | 121815 | 153179 4 | 34:02.30 | 20:53.45 | 153180 | 247199 5 | 54:56.00 | 7:51.19 | 247200 | 282543 6 | 62:47.19 | 7:32.39 | 282544 | 316482
Track 1
Filename D:\Torrents\Tchaikovsky Three Piano Concerti, Graffman, Szell, Ormandy [2005 compilation] FLAC\Disc 1 of 2\01. Graffman,Szell Concerto No.1-1.Allegro non troppo e molto masestoso Allegro con spirito.wav
Pre-gap length 0:00:02.00
Peak level 97.5 % Extraction speed 6.3 X Track quality 100.0 % Test CRC 63C2F565 Copy CRC 63C2F565 Cannot be verified as accurate (confidence 2) [901ED49D], AccurateRip returned [D113F45A] (AR v2) Copy OK
Track 2
Filename D:\Torrents\Tchaikovsky Three Piano Concerti, Graffman, Szell, Ormandy [2005 compilation] FLAC\Disc 1 of 2\02. Graffman,Szell Concerto No.1-2.Andantino semplice.wav
Pre-gap length 0:00:03.32
Peak level 60.7 % Extraction speed 7.2 X Track quality 100.0 % Test CRC 07EC547D Copy CRC 07EC547D Cannot be verified as accurate (confidence 2) [F98A99B7], AccurateRip returned [2EDC4FCF] (AR v2) Copy OK
Track 3
Filename D:\Torrents\Tchaikovsky Three Piano Concerti, Graffman, Szell, Ormandy [2005 compilation] FLAC\Disc 1 of 2\03. Graffman,Szell Concerto No.1-3.Allegro con fuoco.wav
Pre-gap length 0:00:05.51
Peak level 98.2 % Extraction speed 7.8 X Track quality 100.0 % Test CRC 784683BF Copy CRC 784683BF Cannot be verified as accurate (confidence 2) [9CC7BFC2], AccurateRip returned [4AC6AB6C] (AR v2) Copy OK
Track 4
Filename D:\Torrents\Tchaikovsky Three Piano Concerti, Graffman, Szell, Ormandy [2005 compilation] FLAC\Disc 1 of 2\04. Graffman,Ormandy Concerto No.2-1.Allegro brillante.wav
Pre-gap length 0:00:09.32
Peak level 79.5 % Extraction speed 8.9 X Track quality 99.9 % Test CRC 33E8068D Copy CRC 33E8068D Cannot be verified as accurate (confidence 2) [A60129D6], AccurateRip returned [9020227D] (AR v2) Copy OK
Track 5
Filename D:\Torrents\Tchaikovsky Three Piano Concerti, Graffman, Szell, Ormandy [2005 compilation] FLAC\Disc 1 of 2\05. Graffman,Ormandy Concerto No.2-2. Andante non troppo.wav
Pre-gap length 0:00:03.69
Peak level 56.0 % Extraction speed 9.5 X Track quality 100.0 % Test CRC 6D18F4EF Copy CRC 6D18F4EF Cannot be verified as accurate (confidence 2) [7E449A9C], AccurateRip returned [5E57A01F] (AR v2) Copy OK
Track 6
Filename D:\Torrents\Tchaikovsky Three Piano Concerti, Graffman, Szell, Ormandy [2005 compilation] FLAC\Disc 1 of 2\06. Graffman,Ormandy Concerto No.2-3.Allegro con fuoco.wav
Pre-gap length 0:00:04.50
Peak level 80.0 % Extraction speed 9.2 X Track quality 99.9 % Test CRC 3C6721F6 Copy CRC 3C6721F6 Cannot be verified as accurate (confidence 2) [5744A7F8], AccurateRip returned [7DDAD222] (AR v2) Copy OK
No tracks could be verified as accurateYou may have a different pressing from the one(s) in the database
No errors occurred
End of status report
==== Log checksum 8641C0C38671EB741C14525D1DF44530C494132EE5F2CD7815283F1FA3C60E24 ====

Содержание индексной карты (.CUE)

REM GENRE ClassicalREM DATE 2005REM DISCID 58107B06REM COMMENT "ExactAudioCopy v1.0b3"REM DISCNUMBER 1REM TOTALDISCS 2PERFORMER "Gary Graffman"TITLE "Tchaikovsky: The Three Piano Concertos"FILE "01. Graffman,Szell Concerto No.1-1.Allegro non troppo.wav" WAVE TRACK 01 AUDIO TITLE "Piano Concerto No. 1 In B Flat Minor, Op. 23: Allegro Non Troppo E Molto Maestoso" PERFORMER "Gary Graffman, The Cleveland Orchestra, George Szell" INDEX 01 00:00:00 TRACK 02 AUDIO TITLE "Piano Concerto No. 1 In B Flat Minor, Op. 23: Andantino Simplice" PERFORMER "Gary Graffman, The Cleveland Orchestra, George Szell" INDEX 00 19:47:74FILE "02. Graffman,Szell Concerto No.1-2.Andantino semplice.wav" WAVE INDEX 01 00:00:00 TRACK 03 AUDIO TITLE "Piano Concerto No. 1 In B Flat Minor, Op. 23: Allegro Con Fuoco; Allegro Vivo" PERFORMER "Gary Graffman, The Cleveland Orchestra, George Szell" INDEX 00 07:07:08FILE "03. Graffman,Szell Concerto No.1-3.Allegro con fuoco.wav" WAVE INDEX 01 00:00:00 TRACK 04 AUDIO TITLE "Piano Concerto No. 2 In G Major, Op. 44: Allegro Brillante E Molto Vivace" PERFORMER "Gary Graffman, The Philadelphia Orchestra, Eugene Ormandy" INDEX 00 06:48:59FILE "04. Graffman,Ormandy Concerto No.2-1.Allegro brillante.wav" WAVE INDEX 01 00:00:00 TRACK 05 AUDIO TITLE "Piano Concerto No. 2 In G Major, Op. 44: Andante Non Troppo" PERFORMER "Gary Graffman, The Philadelphia Orchestra, Eugene Ormandy" INDEX 00 20:49:51FILE "05. Graffman,Ormandy Concerto No.2-2. Andante non troppo.wav" WAVE INDEX 01 00:00:00 TRACK 06 AUDIO TITLE "Piano Concerto No. 2 In G Major, Op. 44: Allegro Con Fuoco" PERFORMER "Gary Graffman, The Philadelphia Orchestra, Eugene Ormandy" INDEX 00 07:46:44FILE "06. Graffman,Ormandy Concerto No.2-3.Allegro con fuoco.wav" WAVE INDEX 01 00:00:00

Лог проверки качества

-----------------------
DON'T MODIFY THIS FILE
-----------------------
PERFORMER: auCDtect Task Manager, ver. 1.6.0 RC1 build 1.6.0.1Copyright (c) 2008-2010 y-soft. All rights reservedhttp://y-soft.org
ANALYZER: auCDtect: CD records authenticity detector, version 0.8.2Copyright (c) 2004 Oleg Berngardt. All rights reserved.Copyright (c) 2004 Alexander Djourik. All rights reserved.
FILE: 06. Graffman,Ormandy Concerto No.2-3.Allegro con fuoco.flac Size: 37694358 Hash: 0AF314205FFC2E9A1F242C32220ADC3A Accuracy: -m0 Conclusion: CDDA 100% Signature: 6BE8E6746B7CD00B22342534BC3F46F9BFA5C4ABFILE: 05. Graffman,Ormandy Concerto No.2-2. Andante non troppo.flac Size: 34480619 Hash: 284F6E36F2D6B26E610A617996F917AF Accuracy: -m0 Conclusion: CDDA 100% Signature: 84549017F363ED4C8E4608AAB6D6D16B4DD3609BFILE: 04. Graffman,Ormandy Concerto No.2-1.Allegro brillante.flac Size: 99763170 Hash: C3B568A816F29D8C05131538BCB43114 Accuracy: -m0 Conclusion: CDDA 100% Signature: C6275725ECC8B46172E17D5364AC96E081B54C5FFILE: 03. Graffman,Szell Concerto No.1-3.Allegro con fuoco.flac Size: 33735905 Hash: F0AE69E6335F3A6C33C63227F3AA4E31 Accuracy: -m0 Conclusion: CDDA 100% Signature: 7BCF442EC7E8222E2E4A91A1F1700158EA28477BFILE: 02. Graffman,Szell Concerto No.1-2.Andantino semplice.flac Size: 27034115 Hash: 1204BDB235F73D73BB88A4B9EE86FD1C Accuracy: -m0 Conclusion: CDDA 100% Signature: 5DA6844DCDFE4DE91471AAAEC011823C9B2CD553FILE: 01. Graffman,Szell Concerto No.1-1.Allegro non troppo.flac Size: 90739750 Hash: 4ACCA3E18ED9C6EA8CE6A4306DE789A5 Accuracy: -m0 Conclusion: CDDA 100% Signature: 96FB66BBB7CEF907759CE68079B64B5943C35E75

Динамический диапазон

foobar2000 1.2.2 / Замер динамического диапазона (DR) 1.1.1Дата отчёта: 2014-10-09 00:09:20
--------------------------------------------------------------------------------Анализ: Gary Graffman, George Szell, Eugene Ormandy / Tchaikovsky - Piano Concertos Nos.1 & 2--------------------------------------------------------------------------------
DR Пики RMS Продолжительность трека--------------------------------------------------------------------------------DR14 -0.21 дБ -20.15 дБ 19:51 ?-Graffman/Szell Concerto No.1-1.Allegro non troppo e molto masestoso Allegro con spiritoDR17 -4.32 дБ -29.88 дБ 7:13 ?-Graffman/Szell Concerto No.1-2.Andantino sempliceDR13 -0.16 дБ -19.34 дБ 6:58 ?-Graffman/Szell Concerto No.1-3.Allegro con fuocoDR12 -1.98 дБ -18.95 дБ 20:54 ?-Graffman/Ormandy Concerto No.2-1.Allegro brillanteDR13 -5.02 дБ -25.19 дБ 7:51 ?-Graffman/Ormandy Concerto No.2-2. Andante non troppoDR12 -1.94 дБ -18.28 дБ 7:33 ?-Graffman/Ormandy Concerto No.2-3.Allegro con fuoco--------------------------------------------------------------------------------
Количество треков: 6Реальные значения DR: DR13
Частота: 44100 ГцКаналов: 2Разрядность: 16Битрейт: 666 кбит/сКодек: FLAC================================================================================

Скриншот спектра частот

CD 2Лог создания рипа

Exact Audio Copy V1.0 beta 3 from 29. August 2011
EAC extraction logfile from 16. November 2012, 16:14
Gary Graffman; Szell - Cleveland Orchestra; Ormandy - Philadelphia Orchestra / Tchaikovsky: The Three Piano Concertos
Used drive : PIONEER DVD-RW DVR-112L Adapter: 6 ID: 0
Read mode : SecureUtilize accurate stream : YesDefeat audio cache : YesMake use of C2 pointers : No
Read offset correction : 48Overread into Lead-In and Lead-Out : NoFill up missing offset samples with silence : YesDelete leading and trailing silent blocks : NoNull samples used in CRC calculations : YesUsed interface : Native Win32 interface for Win NT & 2000Gap handling : Appended to previous track
Used output format : Internal WAV RoutinesSample format : 44.100 Hz; 16 Bit; Stereo
TOC of the extracted CD
Track | Start | Length | Start sector | End sector --------------------------------------------------------- 1 | 0:00.00 | 15:17.11 | 0 | 68785 2 | 15:17.11 | 1:33.56 | 68786 | 75816 3 | 16:50.67 | 2:47.03 | 75817 | 88344 4 | 19:37.70 | 0:57.41 | 88345 | 92660 5 | 20:35.36 | 4:05.02 | 92661 | 111037 6 | 24:40.38 | 0:29.24 | 111038 | 113236 7 | 25:09.62 | 1:02.31 | 113237 | 117917 8 | 26:12.18 | 3:19.63 | 117918 | 132905 9 | 29:32.06 | 0:44.18 | 132906 | 136223 10 | 30:16.24 | 1:04.39 | 136224 | 141062 11 | 31:20.63 | 2:19.67 | 141063 | 151554 12 | 33:40.55 | 1:32.05 | 151555 | 158459 13 | 35:12.60 | 1:16.20 | 158460 | 164179 14 | 36:29.05 | 3:53.64 | 164180 | 181718 15 | 40:22.69 | 3:03.04 | 181719 | 195447 16 | 43:25.73 | 5:18.02 | 195448 | 219299 17 | 48:44.00 | 8:12.24 | 219300 | 256223
Track 1
Filename D:\Torrents\Tchaikovsky Three Piano Concerti, Graffman, Szell, Ormandy [2005 compilation] FLAC\Disc 2 of 2\01. Tchaikovsky - Piano concerto no. 3.wav
Pre-gap length 0:00:02.00
Peak level 100.0 % Extraction speed 6.0 X Track quality 100.0 % Test CRC 8A4772EA Copy CRC 8A4772EA Cannot be verified as accurate (confidence 2) [23599BAF], AccurateRip returned [B412FA92] (AR v2) Copy OK
Track 2
Filename D:\Torrents\Tchaikovsky Three Piano Concerti, Graffman, Szell, Ormandy [2005 compilation] FLAC\Disc 2 of 2\02. Mussorgsky - Pictures at an Exhibition- Promenade.wav
Pre-gap length 0:00:04.48
Peak level 61.1 % Extraction speed 5.1 X Track quality 100.0 % Test CRC B7278520 Copy CRC B7278520 Cannot be verified as accurate (confidence 2) [91E17782], AccurateRip returned [01074A4C] (AR v2) Copy OK
Track 3
Filename D:\Torrents\Tchaikovsky Three Piano Concerti, Graffman, Szell, Ormandy [2005 compilation] FLAC\Disc 2 of 2\03. Mussorgsky - Pictures at an Exhibition- Gnomus.wav
Peak level 69.1 % Extraction speed 5.7 X Track quality 100.0 % Test CRC 9D3E33A1 Copy CRC 9D3E33A1 Cannot be verified as accurate (confidence 2) [0C3E37E0], AccurateRip returned [F2138BF4] (AR v2) Copy OK
Track 4
Filename D:\Torrents\Tchaikovsky Three Piano Concerti, Graffman, Szell, Ormandy [2005 compilation] FLAC\Disc 2 of 2\04. Mussorgsky - Pictures at an Exhibition- Promenade.wav
Peak level 19.6 % Extraction speed 4.5 X Track quality 100.0 % Test CRC 44025951 Copy CRC 44025951 Cannot be verified as accurate (confidence 2) [5EF1D4CD], AccurateRip returned [58819AEE] (AR v2) Copy OK
Track 5
Filename D:\Torrents\Tchaikovsky Three Piano Concerti, Graffman, Szell, Ormandy [2005 compilation] FLAC\Disc 2 of 2\05. Mussorgsky - Pictures at an Exhibition- The Old Castle.wav
Peak level 54.8 % Extraction speed 6.0 X Track quality 99.9 % Test CRC B1D88F0E Copy CRC B1D88F0E Cannot be verified as accurate (confidence 2) [C2AED708], AccurateRip returned [F4A4EE5A] (AR v2) Copy OK
Track 6
Filename D:\Torrents\Tchaikovsky Three Piano Concerti, Graffman, Szell, Ormandy [2005 compilation] FLAC\Disc 2 of 2\06. Mussorgsky - Pictures at an Exhibition- Promenade.wav
Peak level 38.5 % Extraction speed 3.4 X Track quality 100.0 % Test CRC 21F78ADB Copy CRC 21F78ADB Cannot be verified as accurate (confidence 2) [87DE04B2], AccurateRip returned [6B9A4A2F] (AR v2) Copy OK
Track 7
Filename D:\Torrents\Tchaikovsky Three Piano Concerti, Graffman, Szell, Ormandy [2005 compilation] FLAC\Disc 2 of 2\07. Mussorgsky - Pictures at an Exhibition- Les Tuileries.wav
Peak level 33.5 % Extraction speed 3.6 X Track quality 99.8 % Test CRC A34DA7B5 Copy CRC A34DA7B5 Cannot be verified as accurate (confidence 2) [497128E2], AccurateRip returned [94A34BFC] (AR v2) Copy OK
Track 8
Filename D:\Torrents\Tchaikovsky Three Piano Concerti, Graffman, Szell, Ormandy [2005 compilation] FLAC\Disc 2 of 2\08. Mussorgsky - Pictures at an Exhibition- Bydlo.wav
Peak level 55.0 % Extraction speed 6.0 X Track quality 99.9 % Test CRC 210D8DD0 Copy CRC 210D8DD0 Cannot be verified as accurate (confidence 2) [B7F12893], AccurateRip returned [A390842B] (AR v2) Copy OK
Track 9
Filename D:\Torrents\Tchaikovsky Three Piano Concerti, Graffman, Szell, Ormandy [2005 compilation] FLAC\Disc 2 of 2\09. Mussorgsky - Pictures at an Exhibition- Promenade.wav
Peak level 49.2 % Extraction speed 4.4 X Track quality 100.0 % Test CRC 93C8AAF2 Copy CRC 93C8AAF2 Cannot be verified as accurate (confidence 2) [1F68B561], AccurateRip returned [517E3C69] (AR v2) Copy OK
Track 10
Filename D:\Torrents\Tchaikovsky Three Piano Concerti, Graffman, Szell, Ormandy [2005 compilation] FLAC\Disc 2 of 2\10. Mussorgsky - Pictures at an Exhibition- Ballet of the Unhatched Chicks.wav
Peak level 54.0 % Extraction speed 5.2 X Track quality 100.0 % Test CRC 885B4F15 Copy CRC 885B4F15 Cannot be verified as accurate (confidence 2) [A3F11B82], AccurateRip returned [E0436EBB] (AR v2) Copy OK
Track 11
Filename D:\Torrents\Tchaikovsky Three Piano Concerti, Graffman, Szell, Ormandy [2005 compilation] FLAC\Disc 2 of 2\11. Mussorgsky - Pictures at an Exhibition- Two Polish Jews.wav
Peak level 65.3 % Extraction speed 6.7 X Track quality 100.0 % Test CRC EB697B17 Copy CRC EB697B17 Cannot be verified as accurate (confidence 2) [76E4AB07], AccurateRip returned [A9EEB54A] (AR v2) Copy OK
Track 12
Filename D:\Torrents\Tchaikovsky Three Piano Concerti, Graffman, Szell, Ormandy [2005 compilation] FLAC\Disc 2 of 2\12. Mussorgsky - Pictures at an Exhibition- Promenade.wav
Peak level 70.1 % Extraction speed 6.2 X Track quality 100.0 % Test CRC 135FAC17 Copy CRC 135FAC17 Cannot be verified as accurate (confidence 2) [7DA7F675], AccurateRip returned [5899AAF2] (AR v2) Copy OK
Track 13
Filename D:\Torrents\Tchaikovsky Three Piano Concerti, Graffman, Szell, Ormandy [2005 compilation] FLAC\Disc 2 of 2\13. Mussorgsky - Pictures at an Exhibition- The Market at Limoges.wav
Peak level 64.9 % Extraction speed 5.7 X Track quality 100.0 % Test CRC 77BF6ED1 Copy CRC 77BF6ED1 Cannot be verified as accurate (confidence 2) [6F798A0A], AccurateRip returned [0187DD12] (AR v2) Copy OK
Track 14
Filename D:\Torrents\Tchaikovsky Three Piano Concerti, Graffman, Szell, Ormandy [2005 compilation] FLAC\Disc 2 of 2\14. Mussorgsky - Pictures at an Exhibition- The Catacombs.wav
Peak level 65.2 % Extraction speed 7.7 X Track quality 100.0 % Test CRC EBE59096 Copy CRC EBE59096 Cannot be verified as accurate (confidence 2) [1AAA23BB], AccurateRip returned [B6EEA618] (AR v2) Copy OK
Track 15
Filename D:\Torrents\Tchaikovsky Three Piano Concerti, Graffman, Szell, Ormandy [2005 compilation] FLAC\Disc 2 of 2\15. Mussorgsky - Pictures at an Exhibition- The Hut of Baba Yaga.wav
Peak level 79.8 % Extraction speed 7.6 X Track quality 100.0 % Test CRC 23125C70 Copy CRC 23125C70 Cannot be verified as accurate (confidence 2) [BF8B7A73], AccurateRip returned [9C67B253] (AR v2) Copy OK
Track 16
Filename D:\Torrents\Tchaikovsky Three Piano Concerti, Graffman, Szell, Ormandy [2005 compilation] FLAC\Disc 2 of 2\16. Mussorgsky - Pictures at an Exhibition- The Great Gate of Kiev.wav
Peak level 83.3 % Extraction speed 7.7 X Track quality 99.9 % Test CRC A1BE6278 Copy CRC A1BE6278 Cannot be verified as accurate (confidence 2) [3B8F7B94], AccurateRip returned [B4DD3D26] (AR v2) Copy OK
Track 17
Filename D:\Torrents\Tchaikovsky Three Piano Concerti, Graffman, Szell, Ormandy [2005 compilation] FLAC\Disc 2 of 2\17. Balakirev - Islamey.wav
Pre-gap length 0:00:06.65
Peak level 66.0 % Extraction speed 8.6 X Track quality 99.9 % Test CRC E4A1F980 Copy CRC E4A1F980 Cannot be verified as accurate (confidence 2) [61B97517], AccurateRip returned [B1C724D9] (AR v2) Copy OK
No tracks could be verified as accurateYou may have a different pressing from the one(s) in the database
No errors occurred
End of status report
==== Log checksum 255833939B34BB11675EDB07E908DB2F7D19FC3BA6DE1C261A129AB8ABE7942B ====
------------------------------------------------------------
Exact Audio Copy V1.0 beta 3 from 29. August 2011
EAC extraction logfile from 16. November 2012, 16:14
Gary Graffman; Szell - Cleveland Orchestra; Ormandy - Philadelphia Orchestra / Tchaikovsky: The Three Piano Concertos
Used drive : PIONEER DVD-RW DVR-112L Adapter: 6 ID: 0
Read mode : SecureUtilize accurate stream : YesDefeat audio cache : YesMake use of C2 pointers : No
Read offset correction : 48Overread into Lead-In and Lead-Out : NoFill up missing offset samples with silence : YesDelete leading and trailing silent blocks : NoNull samples used in CRC calculations : YesUsed interface : Native Win32 interface for Win NT & 2000Gap handling : Appended to previous track
Used output format : Internal WAV RoutinesSample format : 44.100 Hz; 16 Bit; Stereo
TOC of the extracted CD
Track | Start | Length | Start sector | End sector --------------------------------------------------------- 1 | 0:00.00 | 15:17.11 | 0 | 68785 2 | 15:17.11 | 1:33.56 | 68786 | 75816 3 | 16:50.67 | 2:47.03 | 75817 | 88344 4 | 19:37.70 | 0:57.41 | 88345 | 92660 5 | 20:35.36 | 4:05.02 | 92661 | 111037 6 | 24:40.38 | 0:29.24 | 111038 | 113236 7 | 25:09.62 | 1:02.31 | 113237 | 117917 8 | 26:12.18 | 3:19.63 | 117918 | 132905 9 | 29:32.06 | 0:44.18 | 132906 | 136223 10 | 30:16.24 | 1:04.39 | 136224 | 141062 11 | 31:20.63 | 2:19.67 | 141063 | 151554 12 | 33:40.55 | 1:32.05 | 151555 | 158459 13 | 35:12.60 | 1:16.20 | 158460 | 164179 14 | 36:29.05 | 3:53.64 | 164180 | 181718 15 | 40:22.69 | 3:03.04 | 181719 | 195447 16 | 43:25.73 | 5:18.02 | 195448 | 219299 17 | 48:44.00 | 8:12.24 | 219300 | 256223
Track 1
Filename D:\Torrents\Tchaikovsky Three Piano Concerti, Graffman, Szell, Ormandy [2005 compilation] FLAC\Disc 2 of 2\01. Tchaikovsky - Piano concerto no. 3.wav
Pre-gap length 0:00:02.00
Peak level 100.0 % Extraction speed 6.0 X Track quality 100.0 % Test CRC 8A4772EA Copy CRC 8A4772EA Cannot be verified as accurate (confidence 2) [23599BAF], AccurateRip returned [B412FA92] (AR v2) Copy OK
Track 2
Filename D:\Torrents\Tchaikovsky Three Piano Concerti, Graffman, Szell, Ormandy [2005 compilation] FLAC\Disc 2 of 2\02. Mussorgsky - Pictures at an Exhibition- Promenade.wav
Pre-gap length 0:00:04.48
Peak level 61.1 % Extraction speed 5.1 X Track quality 100.0 % Test CRC B7278520 Copy CRC B7278520 Cannot be verified as accurate (confidence 2) [91E17782], AccurateRip returned [01074A4C] (AR v2) Copy OK
Track 3
Filename D:\Torrents\Tchaikovsky Three Piano Concerti, Graffman, Szell, Ormandy [2005 compilation] FLAC\Disc 2 of 2\03. Mussorgsky - Pictures at an Exhibition- Gnomus.wav
Peak level 69.1 % Extraction speed 5.7 X Track quality 100.0 % Test CRC 9D3E33A1 Copy CRC 9D3E33A1 Cannot be verified as accurate (confidence 2) [0C3E37E0], AccurateRip returned [F2138BF4] (AR v2) Copy OK
Track 4
Filename D:\Torrents\Tchaikovsky Three Piano Concerti, Graffman, Szell, Ormandy [2005 compilation] FLAC\Disc 2 of 2\04. Mussorgsky - Pictures at an Exhibition- Promenade.wav
Peak level 19.6 % Extraction speed 4.5 X Track quality 100.0 % Test CRC 44025951 Copy CRC 44025951 Cannot be verified as accurate (confidence 2) [5EF1D4CD], AccurateRip returned [58819AEE] (AR v2) Copy OK
Track 5
Filename D:\Torrents\Tchaikovsky Three Piano Concerti, Graffman, Szell, Ormandy [2005 compilation] FLAC\Disc 2 of 2\05. Mussorgsky - Pictures at an Exhibition- The Old Castle.wav
Peak level 54.8 % Extraction speed 6.0 X Track quality 99.9 % Test CRC B1D88F0E Copy CRC B1D88F0E Cannot be verified as accurate (confidence 2) [C2AED708], AccurateRip returned [F4A4EE5A] (AR v2) Copy OK
Track 6
Filename D:\Torrents\Tchaikovsky Three Piano Concerti, Graffman, Szell, Ormandy [2005 compilation] FLAC\Disc 2 of 2\06. Mussorgsky - Pictures at an Exhibition- Promenade.wav
Peak level 38.5 % Extraction speed 3.4 X Track quality 100.0 % Test CRC 21F78ADB Copy CRC 21F78ADB Cannot be verified as accurate (confidence 2) [87DE04B2], AccurateRip returned [6B9A4A2F] (AR v2) Copy OK
Track 7
Filename D:\Torrents\Tchaikovsky Three Piano Concerti, Graffman, Szell, Ormandy [2005 compilation] FLAC\Disc 2 of 2\07. Mussorgsky - Pictures at an Exhibition- Les Tuileries.wav
Peak level 33.5 % Extraction speed 3.6 X Track quality 99.8 % Test CRC A34DA7B5 Copy CRC A34DA7B5 Cannot be verified as accurate (confidence 2) [497128E2], AccurateRip returned [94A34BFC] (AR v2) Copy OK
Track 8
Filename D:\Torrents\Tchaikovsky Three Piano Concerti, Graffman, Szell, Ormandy [2005 compilation] FLAC\Disc 2 of 2\08. Mussorgsky - Pictures at an Exhibition- Bydlo.wav
Peak level 55.0 % Extraction speed 6.0 X Track quality 99.9 % Test CRC 210D8DD0 Copy CRC 210D8DD0 Cannot be verified as accurate (confidence 2) [B7F12893], AccurateRip returned [A390842B] (AR v2) Copy OK
Track 9
Filename D:\Torrents\Tchaikovsky Three Piano Concerti, Graffman, Szell, Ormandy [2005 compilation] FLAC\Disc 2 of 2\09. Mussorgsky - Pictures at an Exhibition- Promenade.wav
Peak level 49.2 % Extraction speed 4.4 X Track quality 100.0 % Test CRC 93C8AAF2 Copy CRC 93C8AAF2 Cannot be verified as accurate (confidence 2) [1F68B561], AccurateRip returned [517E3C69] (AR v2) Copy OK
Track 10
Filename D:\Torrents\Tchaikovsky Three Piano Concerti, Graffman, Szell, Ormandy [2005 compilation] FLAC\Disc 2 of 2\10. Mussorgsky - Pictures at an Exhibition- Ballet of the Unhatched Chicks.wav
Peak level 54.0 % Extraction speed 5.2 X Track quality 100.0 % Test CRC 885B4F15 Copy CRC 885B4F15 Cannot be verified as accurate (confidence 2) [A3F11B82], AccurateRip returned [E0436EBB] (AR v2) Copy OK
Track 11
Filename D:\Torrents\Tchaikovsky Three Piano Concerti, Graffman, Szell, Ormandy [2005 compilation] FLAC\Disc 2 of 2\11. Mussorgsky - Pictures at an Exhibition- Two Polish Jews.wav
Peak level 65.3 % Extraction speed 6.7 X Track quality 100.0 % Test CRC EB697B17 Copy CRC EB697B17 Cannot be verified as accurate (confidence 2) [76E4AB07], AccurateRip returned [A9EEB54A] (AR v2) Copy OK
Track 12
Filename D:\Torrents\Tchaikovsky Three Piano Concerti, Graffman, Szell, Ormandy [2005 compilation] FLAC\Disc 2 of 2\12. Mussorgsky - Pictures at an Exhibition- Promenade.wav
Peak level 70.1 % Extraction speed 6.2 X Track quality 100.0 % Test CRC 135FAC17 Copy CRC 135FAC17 Cannot be verified as accurate (confidence 2) [7DA7F675], AccurateRip returned [5899AAF2] (AR v2) Copy OK
Track 13
Filename D:\Torrents\Tchaikovsky Three Piano Concerti, Graffman, Szell, Ormandy [2005 compilation] FLAC\Disc 2 of 2\13. Mussorgsky - Pictures at an Exhibition- The Market at Limoges.wav
Peak level 64.9 % Extraction speed 5.7 X Track quality 100.0 % Test CRC 77BF6ED1 Copy CRC 77BF6ED1 Cannot be verified as accurate (confidence 2) [6F798A0A], AccurateRip returned [0187DD12] (AR v2) Copy OK
Track 14
Filename D:\Torrents\Tchaikovsky Three Piano Concerti, Graffman, Szell, Ormandy [2005 compilation] FLAC\Disc 2 of 2\14. Mussorgsky - Pictures at an Exhibition- The Catacombs.wav
Peak level 65.2 % Extraction speed 7.7 X Track quality 100.0 % Test CRC EBE59096 Copy CRC EBE59096 Cannot be verified as accurate (confidence 2) [1AAA23BB], AccurateRip returned [B6EEA618] (AR v2) Copy OK
Track 15
Filename D:\Torrents\Tchaikovsky Three Piano Concerti, Graffman, Szell, Ormandy [2005 compilation] FLAC\Disc 2 of 2\15. Mussorgsky - Pictures at an Exhibition- The Hut of Baba Yaga.wav
Peak level 79.8 % Extraction speed 7.6 X Track quality 100.0 % Test CRC 23125C70 Copy CRC 23125C70 Cannot be verified as accurate (confidence 2) [BF8B7A73], AccurateRip returned [9C67B253] (AR v2) Copy OK
Track 16
Filename D:\Torrents\Tchaikovsky Three Piano Concerti, Graffman, Szell, Ormandy [2005 compilation] FLAC\Disc 2 of 2\16. Mussorgsky - Pictures at an Exhibition- The Great Gate of Kiev.wav
Peak level 83.3 % Extraction speed 7.7 X Track quality 99.9 % Test CRC A1BE6278 Copy CRC A1BE6278 Cannot be verified as accurate (confidence 2) [3B8F7B94], AccurateRip returned [B4DD3D26] (AR v2) Copy OK
Track 17
Filename D:\Torrents\Tchaikovsky Three Piano Concerti, Graffman, Szell, Ormandy [2005 compilation] FLAC\Disc 2 of 2\17. Balakirev - Islamey.wav
Pre-gap length 0:00:06.65
Peak level 66.0 % Extraction speed 8.6 X Track quality 99.9 % Test CRC E4A1F980 Copy CRC E4A1F980 Cannot be verified as accurate (confidence 2) [61B97517], AccurateRip returned [B1C724D9] (AR v2) Copy OK
No tracks could be verified as accurateYou may have a different pressing from the one(s) in the database
No errors occurred
End of status report
==== Log checksum 255833939B34BB11675EDB07E908DB2F7D19FC3BA6DE1C261A129AB8ABE7942B ====

Содержание индексной карты (.CUE)

REM GENRE ClassicalREM DATE 2005REM DISCID E10D5811REM COMMENT "ExactAudioCopy v1.0b3"REM DISCNUMBER 2REM TOTALDISCS 2PERFORMER "Gary Graffman"TITLE "Tchaikovsky: The Three Piano Concertos"FILE "01. Tchaikovsky - Piano concerto no. 3.wav" WAVE TRACK 01 AUDIO TITLE "Piano Concerto No. 3 in E flat major, Op. 75: Allegro brillante" PERFORMER "Gary Graffman, The Philadelphia Orchestra, Eugene Ormandy" INDEX 01 00:00:00 TRACK 02 AUDIO TITLE "Mussorgsky - Pictures at an Exhibition: Promenade" PERFORMER "Gary Graffman" INDEX 00 15:12:38FILE "02. Mussorgsky - Pictures at an Exhibition- Promenade.wav" WAVE INDEX 01 00:00:00FILE "03. Mussorgsky - Pictures at an Exhibition- Gnomus.wav" WAVE TRACK 03 AUDIO TITLE "Mussorgsky - Pictures at an Exhibition: Gnomus" PERFORMER "Gary Graffman" INDEX 01 00:00:00FILE "04. Mussorgsky - Pictures at an Exhibition- Promenade.wav" WAVE TRACK 04 AUDIO TITLE "Mussorgsky - Pictures at an Exhibition: Promenade" PERFORMER "Gary Graffman" INDEX 01 00:00:00FILE "05. Mussorgsky - Pictures at an Exhibition- The Old Castle.wav" WAVE TRACK 05 AUDIO TITLE "Mussorgsky - Pictures at an Exhibition: The Old Castle" PERFORMER "Gary Graffman" INDEX 01 00:00:00FILE "06. Mussorgsky - Pictures at an Exhibition- Promenade.wav" WAVE TRACK 06 AUDIO TITLE "Mussorgsky - Pictures at an Exhibition: Promenade" PERFORMER "Gary Graffman" INDEX 01 00:00:00FILE "07. Mussorgsky - Pictures at an Exhibition- Les Tuileries.wav" WAVE TRACK 07 AUDIO TITLE "Mussorgsky - Pictures at an Exhibition: Les Tuileries" PERFORMER "Gary Graffman" INDEX 01 00:00:00FILE "08. Mussorgsky - Pictures at an Exhibition- Bydlo.wav" WAVE TRACK 08 AUDIO TITLE "Mussorgsky - Pictures at an Exhibition: Bydlo" PERFORMER "Gary Graffman" INDEX 01 00:00:00FILE "09. Mussorgsky - Pictures at an Exhibition- Promenade.wav" WAVE TRACK 09 AUDIO TITLE "Mussorgsky - Pictures at an Exhibition: Promenade" PERFORMER "Gary Graffman" INDEX 01 00:00:00FILE "10. Mussorgsky - Pictures at an Exhibition- Ballet of the Unhatched Chicks.wav" WAVE TRACK 10 AUDIO TITLE "Mussorgsky - Pictures at an Exhibition: Ballet of the Unhatched Chicks" PERFORMER "Gary Graffman" INDEX 01 00:00:00FILE "11. Mussorgsky - Pictures at an Exhibition- Two Polish Jews.wav" WAVE TRACK 11 AUDIO TITLE "Mussorgsky - Pictures at an Exhibition: Two Polish Jews" PERFORMER "Gary Graffman" INDEX 01 00:00:00FILE "12. Mussorgsky - Pictures at an Exhibition- Promenade.wav" WAVE TRACK 12 AUDIO TITLE "Mussorgsky - Pictures at an Exhibition: Promenade" PERFORMER "Gary Graffman" INDEX 01 00:00:00FILE "13. Mussorgsky - Pictures at an Exhibition- The Market at Limoges.wav" WAVE TRACK 13 AUDIO TITLE "Mussorgsky - Pictures at an Exhibition: The Market at Limoges" PERFORMER "Gary Graffman" INDEX 01 00:00:00FILE "14. Mussorgsky - Pictures at an Exhibition- The Catacombs.wav" WAVE TRACK 14 AUDIO TITLE "Mussorgsky - Pictures at an Exhibition: The Catacombs" PERFORMER "Gary Graffman" INDEX 01 00:00:00FILE "15. Mussorgsky - Pictures at an Exhibition- The Hut of Baba Yaga.wav" WAVE TRACK 15 AUDIO TITLE "Mussorgsky - Pictures at an Exhibition: The Hut of Baba Yaga" PERFORMER "Gary Graffman" INDEX 01 00:00:00FILE "16. Mussorgsky - Pictures at an Exhibition- The Great Gate of Kiev.wav" WAVE TRACK 16 AUDIO TITLE "Mussorgsky - Pictures at an Exhibition: The Great Gate of Kiev" PERFORMER "Gary Graffman" INDEX 01 00:00:00 TRACK 17 AUDIO TITLE "Balakirev - Islamey" PERFORMER "Gary Graffman" INDEX 00 05:11:12FILE "17. Balakirev - Islamey.wav" WAVE INDEX 01 00:00:00

Лог проверки качества

-----------------------
DON'T MODIFY THIS FILE
-----------------------
PERFORMER: auCDtect Task Manager, ver. 1.6.0 RC1 build 1.6.0.1Copyright (c) 2008-2010 y-soft. All rights reservedhttp://y-soft.org
ANALYZER: auCDtect: CD records authenticity detector, version 0.8.2Copyright (c) 2004 Oleg Berngardt. All rights reserved.Copyright (c) 2004 Alexander Djourik. All rights reserved.
FILE: 17. Balakirev - Islamey.flac Size: 39392731 Hash: DBFB13BAEA1A69DA8B4B659367538FB8 Accuracy: -m0 Conclusion: CDDA 99% Signature: 28AC90F0B10BA4FDEA53EF88145A0BDB1C8DADB4FILE: 15. Mussorgsky - Pictures at an Exhibition- The Hut of Baba Yaga.flac Size: 14882649 Hash: E59F58A527C0981709646E77F6D041C4 Accuracy: -m0 Conclusion: CDDA 100% Signature: E14266B7CDABBF13AD0C0CFDE07ED2A7FB2034BCFILE: 14. Mussorgsky - Pictures at an Exhibition- The Catacombs.flac Size: 16237156 Hash: 8DD6F2AC55E16919B76E4E43FDF871E1 Accuracy: -m0 Conclusion: CDDA 100% Signature: 91996B457A1D7A6BAE8409E2C79CD31CAB407CC9FILE: 13. Mussorgsky - Pictures at an Exhibition- The Market at Limoges.flac Size: 6220521 Hash: 31AC6EA6B25225D2D5384BE68478021C Accuracy: -m0 Conclusion: CDDA 100% Signature: B489C21124C2F44626690B7B6FBCCBBC19FE8292FILE: 12. Mussorgsky - Pictures at an Exhibition- Promenade.flac Size: 7328804 Hash: A1BC3651511F7A1C69C572A15CADB24A Accuracy: -m0 Conclusion: CDDA 100% Signature: 6E64DB419D0828ED47E7B139AA9C2FD7BDEA83FFFILE: 11. Mussorgsky - Pictures at an Exhibition- Two Polish Jews.flac Size: 10063692 Hash: 63102AF1F7A36E43646488A74BA77021 Accuracy: -m0 Conclusion: ??? Signature: 9C221DD758EBD0E07C432B76960358D86A5460D9FILE: 10. Mussorgsky - Pictures at an Exhibition- Ballet of the Unhatched Chicks.flac Size: 4736527 Hash: E25720C6DDD3DFDCE8E5D0E70C1489A9 Accuracy: -m0 Conclusion: CDDA 85% Signature: F13EB4760FEFF1EB69D110BE21C8B90454BBD2FDFILE: 09. Mussorgsky - Pictures at an Exhibition- Promenade.flac Size: 3109231 Hash: 8335D2800D58B4B6BD9560DB37EE8761 Accuracy: -m0 Conclusion: CDDA 100% Signature: F064DE5DC22B6F38B80FA3237EA84FB5C16A8302FILE: 08. Mussorgsky - Pictures at an Exhibition- Bydlo.flac Size: 14199541 Hash: 5E37DB0BDA526888D5E0D122B3E9324A Accuracy: -m0 Conclusion: CDDA 99% Signature: C58377161A6822587BE4C795AC88EF26C28C7949FILE: 07. Mussorgsky - Pictures at an Exhibition- Les Tuileries.flac Size: 4244931 Hash: BEC569CD1D25CBD918F68DF0619F229F Accuracy: -m0 Conclusion: CDDA 85% Signature: 28D30878336658F2D3FAC2140CF37D90AB8996CBFILE: 06. Mussorgsky - Pictures at an Exhibition- Promenade.flac Size: 2181728 Hash: EB23F5F0F88BA02B1786982B5307B85D Accuracy: -m0 Conclusion: CDDA 100% Signature: 59D4BB977C5C651707FE3416124405221DB47D19FILE: 05. Mussorgsky - Pictures at an Exhibition- The Old Castle.flac Size: 16782538 Hash: 4D0DB938DCECA486FB65741BCD57CC15 Accuracy: -m0 Conclusion: CDDA 94% Signature: 678676D2F6F06404ED436B6F3DADC0233DA8DF84FILE: 04. Mussorgsky - Pictures at an Exhibition- Promenade.flac Size: 3789745 Hash: 2916769FE41AAAB139CA67604D2E764D Accuracy: -m0 Conclusion: CDDA 85% Signature: 21259E347E1FE8A1E32BCE5DD3B34076C4E4C87AFILE: 03. Mussorgsky - Pictures at an Exhibition- Gnomus.flac Size: 12598080 Hash: 0700832CA206C657974F1215C7A9F5DF Accuracy: -m0 Conclusion: CDDA 87% Signature: 8EF33E109DAD81121B70DAB5D30EA3528E0A77C0FILE: 02. Mussorgsky - Pictures at an Exhibition- Promenade.flac Size: 7313050 Hash: FB2975F6A685F89A818DCDED362FCCC7 Accuracy: -m0 Conclusion: CDDA 62% Signature: E30F19B8F9D8D2026635AAD8613E85AA0467C50FFILE: 01. Tchaikovsky - Piano concerto no. 3.flac Size: 79313434 Hash: 7D7D33346A4A5A5924BE4115C50CC655 Accuracy: -m0 Conclusion: CDDA 43% Signature: 8B21A29C91A0D86A0AC53C239C68D02683A4D7C1

Динамический диапазон

foobar2000 1.2.2 / Замер динамического диапазона (DR) 1.1.1Дата отчёта: 2014-10-09 00:10:34
--------------------------------------------------------------------------------Анализ: Gary Graffman; Szell - Cleveland Orchestra; Ormandy - Philadelphia Orchestra / Tchaikovsky: The Three Piano Concertos--------------------------------------------------------------------------------
DR Пики RMS Продолжительность трека--------------------------------------------------------------------------------DR12 0.00 дБ -16.67 дБ 15:17 ?-Tchaikovsky - Piano concerto no. 3DR12 -4.27 дБ -21.04 дБ 1:34 ?-Mussorgsky - Pictures at an Exhibition: PromenadeDR14 -3.21 дБ -20.98 дБ 2:47 ?-Mussorgsky - Pictures at an Exhibition: GnomusDR13 -14.15 дБ -33.21 дБ 0:58 ?-Mussorgsky - Pictures at an Exhibition: PromenadeDR15 -5.22 дБ -27.81 дБ 4:05 ?-Mussorgsky - Pictures at an Exhibition: The Old CastleDR12 -8.28 дБ -23.28 дБ 0:29 ?-Mussorgsky - Pictures at an Exhibition: PromenadeDR14 -9.49 дБ -29.59 дБ 1:02 ?-Mussorgsky - Pictures at an Exhibition: Les TuileriesDR14 -5.19 дБ -25.07 дБ 3:20 ?-Mussorgsky - Pictures at an Exhibition: BydloDR11 -6.15 дБ -25.39 дБ 0:44 ?-Mussorgsky - Pictures at an Exhibition: PromenadeDR16 -5.34 дБ -25.57 дБ 1:05 ?-Mussorgsky - Pictures at an Exhibition: Ballet of the Unhatched ChicksDR13 -3.69 дБ -23.87 дБ 2:20 ?-Mussorgsky - Pictures at an Exhibition: Two Polish JewsDR12 -3.09 дБ -19.84 дБ 1:32 ?-Mussorgsky - Pictures at an Exhibition: PromenadeDR11 -3.75 дБ -20.21 дБ 1:16 ?-Mussorgsky - Pictures at an Exhibition: The Market at LimogesDR18 -3.71 дБ -28.56 дБ 3:54 ?-Mussorgsky - Pictures at an Exhibition: The CatacombsDR12 -1.96 дБ -18.83 дБ 3:03 ?-Mussorgsky - Pictures at an Exhibition: The Hut of Baba YagaDR13 -1.58 дБ -18.73 дБ 5:18 ?-Mussorgsky - Pictures at an Exhibition: The Great Gate of KievDR12 -3.61 дБ -20.66 дБ 8:12 ?-Balakirev - Islamey--------------------------------------------------------------------------------
Количество треков: 17Реальные значения DR: DR13
Частота: 44100 ГцКаналов: 2Разрядность: 16Битрейт: 640 кбит/сКодек: FLAC================================================================================

Скриншот спектра частот

Доп. информация

Релиз полностью готов к воспроизведению в аудиоплеере (я ориентировался на foobar2000)При скачивании, если необходимо, переименуйте папку, в которой будет находиться альбомБольшая просьба к скачавшим поддерживать раздачу! Помогайте другим, ведь вам тоже может понадобиться помощь!Не забываем говорить "Спасибо"!Комментарии приветствуются!
[teatrix.ru].t9872.torrent 
Торрент: Зарегистрирован [ 2015-10-25 20:37 ] · 51729072F1469C6C38CC6F7D58853A7C3B11F12A

Скачать .torrent

Скачать

15 KB

Статус: проверено
Скачан: 0 раз
Размер: 566 MB
terms.php



Быстрый ответ

Имя:

      
Для отправки сообщений необходимо включить JavaScript
Показать сообщения:    

Текущее время: 05-Дек 19:36

Часовой пояс: UTC + 3


Вы можете начинать темы
Вы можете отвечать на сообщения
Вы не можете редактировать свои сообщения
Вы не можете удалять свои сообщения
Вы не можете голосовать в опросах
Вы не можете прикреплять файлы к сообщениям
Вы можете скачивать файлы