(Classical) The Romantic Violin Concerto – Vol. 17: Bruch 3 & Scottish Fantasy (Liebeck, Brabbins) - 2014, FLAC (image+.cue) lossless


Статистика раздачи [Обновить пиров]
Размер:  294 MB   |    Зарегистрирован:  1 год 1 месяц   |    Скачан:  1 раз

Полного источника не было: 4 месяца 2 дня

Личеров:  1  [  0 KB/s  ]   Подробная статистика пиров
 
   
 
 
 

[Цитировать]

The Romantic Violin Concerto – Vol. 17: Bruch 3 & Scottish Fantasy (Liebeck, Brabbins)
Жанр: Classical
Страна-производитель диска: Франция
Год издания диска: 2014
Издатель (лейбл): Hyperion
Номер по каталогу: CDA68050
Дата записи: 24 и 25 августа 2013 г., Глазго.
Аудиокодек: FLAC
Тип рипа: image+.cue
Битрейт аудио: lossless
Продолжительность: 01:09:35
Источник: odeonmusic
Наличие сканов в содержимом раздачи: да
Треклист:
Макс Брух (1838 — 1920).
Скрипичный концерт № 3 d-moll, op. 58 (1890 — 1891).
01. I. Allegro energico [18:09].
02. II. Adagio [10:49].
03. III. Finale. Allegro molto [09:37].
Фантазия Es-dur для скрипки с оркестром и арфой, со свободным использованием шотландских народных мелодий, op. 46 (1879 — 1880).
04. Вступление. Grave. — [03:41].
05. I. [«Auld Rob Morris», или «Through the wood laddie».] Adagio cantabile [05:18].
06. II. [«The Dusty Miller».] Allegro. — Танец. — Adagio. — [06:40].
07. III. [«I'm a-doun for lack o' Johnnie».] Andante sostenuto. — Più animato. — Tempo I [06:42].
08. IV. Finale. [«Hey tuttie tatie».] Allegro guerriero. — Adagio. — Allegro [08:39].
Исполнители:
Jack Liebeck (скрипка).
BBC Scottish Symphony Orchestra.
Дирижер Martyn Brabbins.

Лог создания рипа

Exact Audio Copy V1.0 beta 3 from 29. August 2011
EAC extraction logfile from 2. October 2014, 15:09
Jack Liebeck / Bruch - Violin Concerto no.3, Scottish Fantasy - Liebeck (Romantic Violin Concerto - 17)
Used drive : TSSTcorpCDDVDW SH-222BB Adapter: 2 ID: 1
Read mode : SecureUtilize accurate stream : YesDefeat audio cache : YesMake use of C2 pointers : No
Read offset correction : 6Overread into Lead-In and Lead-Out : NoFill up missing offset samples with silence : YesDelete leading and trailing silent blocks : NoNull samples used in CRC calculations : YesUsed interface : Native Win32 interface for Win NT & 2000
Used output format : User Defined EncoderSelected bitrate : 896 kBit/sQuality : HighAdd ID3 tag : NoCommand line compressor : C:\Program Files\Exact Audio Copy\FLAC\FLAC.EXEAdditional command line options : -8 -V -T "TITLE=%title%" -T "ARTIST=%artist%" -T "ALBUMARTIST=%albumartist%" -T "ALBUM=%albumtitle%" -T "DATE=%year%" -T "TRACKNUMBER=%tracknr%" -T "TRACKTOTAL=%numtracks%" -T "GENRE=%genre%" -T "COMMENT=%comment%" -T "PERFORMER=%albuminterpret%" -T "COMPOSER=%composer%" %source% -o %dest%
TOC of the extracted CD
Track | Start | Length | Start sector | End sector --------------------------------------------------------- 1 | 0:00.00 | 18:09.29 | 0 | 81703 2 | 18:09.29 | 10:48.74 | 81704 | 130377 3 | 28:58.28 | 9:36.67 | 130378 | 173644 4 | 38:35.20 | 3:41.23 | 173645 | 190242 5 | 42:16.43 | 5:17.43 | 190243 | 214060 6 | 47:34.11 | 6:40.12 | 214061 | 244072 7 | 54:14.23 | 6:41.44 | 244073 | 274191 8 | 60:55.67 | 8:39.27 | 274192 | 313143
Range status and errors
Selected range
Filename G:\Ripped general\[7756] Bruch – Violin Concerto no.3, Scottish Fantasy – Liebeck (Romantic Violin Concerto – 17)\Bruch - Violin Concerto no.3, Scottish Fantasy - Liebeck (Romantic Violin Concerto - 17).wav
Peak level 99.2 % Extraction speed 6.5 X Range quality 99.9 % Test CRC 069E88E9 Copy CRC 069E88E9 Copy OK
No errors occurred
AccurateRip summary
Track 1 not present in databaseTrack 2 not present in databaseTrack 3 not present in databaseTrack 4 not present in databaseTrack 5 not present in databaseTrack 6 not present in databaseTrack 7 not present in databaseTrack 8 not present in database
None of the tracks are present in the AccurateRip database
End of status report
==== Log checksum 76D551592235837CC150F82545EF0E49A931FE2CD65C267DC7319AA6981AAC69 ====

Содержание индексной карты (.CUE)

REM GENRE ClassicalREM DATE 2013REM DISCID 72104F08REM COMMENT "ExactAudioCopy v1.0b3"CATALOG 0034571280509PERFORMER "Jack Liebeck & Martyn Brabbins"TITLE "Bruch – Violin Concerto No. 3 & Scottish Fantasy – Jack Liebeck (RVC – 17)"FILE "Bruch – Violin Concerto No. 3 & Scottish Fantasy – Jack Liebeck (RVC – 17).flac" WAVE TRACK 01 AUDIO TITLE "Violin Concerto No. 3 in D minor, Op. 58 - I. Allegro energico" PERFORMER "Jack Liebeck & Martyn Brabbins" ISRC GBAJY1405001 INDEX 01 00:00:00 TRACK 02 AUDIO TITLE "Violin Concerto No. 3 in D minor, Op. 58 - II. Adagio" PERFORMER "Jack Liebeck & Martyn Brabbins" ISRC GBAJY1405002 INDEX 00 18:06:70 INDEX 01 18:09:29 TRACK 03 AUDIO TITLE "Violin Concerto No. 3 in D minor, Op. 58 - III. Finale. Allegro molto" PERFORMER "Jack Liebeck & Martyn Brabbins" ISRC GBAJY1405003 INDEX 00 28:57:56 INDEX 01 28:58:28 TRACK 04 AUDIO TITLE "Scottish Fantasy in E flat major, Op. 46 - Introduction. Grave -" PERFORMER "Jack Liebeck & Martyn Brabbins" ISRC GBAJY1405004 INDEX 00 38:26:41 INDEX 01 38:35:20 TRACK 05 AUDIO TITLE "Scottish Fantasy in E flat major, Op. 46 - I. Adagio cantabile" PERFORMER "Jack Liebeck & Martyn Brabbins" ISRC GBAJY1405005 INDEX 00 42:16:12 INDEX 01 42:16:43 TRACK 06 AUDIO TITLE "Scottish Fantasy in E flat major, Op. 46 - II. Allegro -" PERFORMER "Jack Liebeck & Martyn Brabbins" ISRC GBAJY1405006 INDEX 00 47:33:52 INDEX 01 47:34:11 TRACK 07 AUDIO TITLE "Scottish Fantasy in E flat major, Op. 46 - III. Andante sostenuto" PERFORMER "Jack Liebeck & Martyn Brabbins" ISRC GBAJY1405007 INDEX 00 54:13:73 INDEX 01 54:14:23 TRACK 08 AUDIO TITLE "Scottish Fantasy in E flat major, Op. 46 - IV. Finale. Allegro guerriero" PERFORMER "Jack Liebeck & Martyn Brabbins" ISRC GBAJY1405008 INDEX 00 60:53:36 INDEX 01 60:55:67

Вариант индексной карты (.CUE) с исправленными зазорами

REM GENRE ClassicalREM DATE 2013REM DISCID 72104F08REM COMMENT "ExactAudioCopy v1.0b3"CATALOG 0034571280509PERFORMER "Jack Liebeck & Martyn Brabbins"TITLE "Bruch – Violin Concerto No. 3 & Scottish Fantasy – Jack Liebeck (RVC – 17)"FILE "Bruch – Violin Concerto No. 3 & Scottish Fantasy – Jack Liebeck (RVC – 17).flac" WAVE TRACK 01 AUDIO TITLE "Violin Concerto No. 3 in D minor, Op. 58 - I. Allegro energico" PERFORMER "Jack Liebeck & Martyn Brabbins" ISRC GBAJY1405001 INDEX 00 00:00:00 INDEX 01 00:02:63 TRACK 02 AUDIO TITLE "Violin Concerto No. 3 in D minor, Op. 58 - II. Adagio" PERFORMER "Jack Liebeck & Martyn Brabbins" ISRC GBAJY1405002 INDEX 00 18:06:70 INDEX 01 18:09:29 TRACK 03 AUDIO TITLE "Violin Concerto No. 3 in D minor, Op. 58 - III. Finale. Allegro molto" PERFORMER "Jack Liebeck & Martyn Brabbins" ISRC GBAJY1405003 INDEX 00 28:57:56 INDEX 01 28:58:28 TRACK 04 AUDIO TITLE "Scottish Fantasy in E flat major, Op. 46 - Introduction. Grave -" PERFORMER "Jack Liebeck & Martyn Brabbins" ISRC GBAJY1405004 INDEX 00 38:25:15 INDEX 01 38:35:20 TRACK 05 AUDIO TITLE "Scottish Fantasy in E flat major, Op. 46 - I. Adagio cantabile" PERFORMER "Jack Liebeck & Martyn Brabbins" ISRC GBAJY1405005 INDEX 01 42:16:43 TRACK 06 AUDIO TITLE "Scottish Fantasy in E flat major, Op. 46 - II. Allegro -" PERFORMER "Jack Liebeck & Martyn Brabbins" ISRC GBAJY1405006 INDEX 01 47:34:11 TRACK 07 AUDIO TITLE "Scottish Fantasy in E flat major, Op. 46 - III. Andante sostenuto" PERFORMER "Jack Liebeck & Martyn Brabbins" ISRC GBAJY1405007 INDEX 01 54:14:23 TRACK 08 AUDIO TITLE "Scottish Fantasy in E flat major, Op. 46 - IV. Finale. Allegro guerriero" PERFORMER "Jack Liebeck & Martyn Brabbins" ISRC GBAJY1405008 INDEX 00 60:53:36 INDEX 01 60:55:67 INDEX 02 69:27:69
-В оригинальной индексной карте (.CUE) зазоры вставлены прямо посредине «Фантазии».
[teatrix.ru].t9873.torrent 
Торрент: Зарегистрирован [ 2015-10-25 20:37 ] · EC977A95D4BF77485ED3F154E71511DF124883EF

Скачать .torrent

Скачать

13 KB

Статус: проверено
Скачан: 1 раз
Размер: 294 MB
terms.php



Быстрый ответ

Имя:

      
Для отправки сообщений необходимо включить JavaScript
Показать сообщения:    

Текущее время: 03-Дек 03:23

Часовой пояс: UTC + 3


Вы можете начинать темы
Вы можете отвечать на сообщения
Вы не можете редактировать свои сообщения
Вы не можете удалять свои сообщения
Вы не можете голосовать в опросах
Вы не можете прикреплять файлы к сообщениям
Вы можете скачивать файлы