(Classical) The Hyperion Romantic Piano Concerto – Vol. 64: Oswald & Alfredo Napoleao 2 (Pizarro, Brabbins) - 2014, FLAC (image+.cue) lossless


Статистика раздачи [Обновить пиров]
Размер:  253 MB   |    Зарегистрирован:  1 год 1 месяц   |    Скачан:  0 раз

Полного источника не было: Никогда

Личеров:  1  [  0 KB/s  ]   Подробная статистика пиров
 
   
 
 
 

[Цитировать]

The Hyperion Romantic Piano Concerto – Vol. 64: Oswald & Alfredo Napoleão 2 (Pizarro, Brabbins)
Жанр: Classical
Страна-производитель диска: Франция
Год издания диска: 2014
Издатель (лейбл): Hyperion
Номер по каталогу: CDA67984
Дата записи: 21 — 23 октября 2013 г., Кардифф.
Аудиокодек: FLAC
Тип рипа: image+.cue
Битрейт аудио: lossless
Продолжительность: 01:07:11
Источник: odeonmusic
Наличие сканов в содержимом раздачи: да
Треклист:
Энрике Освальд (1852 — 1931).
Фортепианный концерт g-moll, op. 10 (ок. 1886).
01. I. Allegro (un poco agitato) [14:21].
02. II. Adagio. — [09:22].
03. III. Allegro [06:27].
Алфреду Напулеан душ Сантуш (1852 — 1917).
Фортепианный концерт № 2 es-moll, op. 31 (середина 1880-х?; до 1889).
04. I. Andantino maestoso [19:53].
05. II. Scherzo. Allegro vivace. — Più lento. — Tempo I [04:11].
06. III. Allegro. — Più vivo [12:55].
Исполнители:
Artur Pizarro (фортепиано).
BBC National Orchestra of Wales.
Дирижер Martyn Brabbins.

Лог создания рипа

Exact Audio Copy V1.0 beta 3 from 29. August 2011
EAC extraction logfile from 2. October 2014, 14:04
Artur Pizarro / Oswald, Napoleão - Piano Concertos - Artur Pizarro (Romantic Piano Concerto - 64)
Used drive : TSSTcorpCDDVDW SH-222BB Adapter: 2 ID: 1
Read mode : SecureUtilize accurate stream : YesDefeat audio cache : YesMake use of C2 pointers : No
Read offset correction : 6Overread into Lead-In and Lead-Out : NoFill up missing offset samples with silence : YesDelete leading and trailing silent blocks : NoNull samples used in CRC calculations : YesUsed interface : Native Win32 interface for Win NT & 2000
Used output format : User Defined EncoderSelected bitrate : 896 kBit/sQuality : HighAdd ID3 tag : NoCommand line compressor : C:\Program Files\Exact Audio Copy\FLAC\FLAC.EXEAdditional command line options : -8 -V -T "TITLE=%title%" -T "ARTIST=%artist%" -T "ALBUMARTIST=%albumartist%" -T "ALBUM=%albumtitle%" -T "DATE=%year%" -T "TRACKNUMBER=%tracknr%" -T "TRACKTOTAL=%numtracks%" -T "GENRE=%genre%" -T "COMMENT=%comment%" -T "PERFORMER=%albuminterpret%" -T "COMPOSER=%composer%" %source% -o %dest%
TOC of the extracted CD
Track | Start | Length | Start sector | End sector --------------------------------------------------------- 1 | 0:00.00 | 14:21.54 | 0 | 64628 2 | 14:21.54 | 9:21.60 | 64629 | 106763 3 | 23:43.39 | 6:27.28 | 106764 | 135816 4 | 30:10.67 | 19:52.38 | 135817 | 225254 5 | 50:03.30 | 4:11.43 | 225255 | 244122 6 | 54:14.73 | 12:54.52 | 244123 | 302224
Range status and errors
Selected range
Filename G:\Ripped general\[7757] Oswald, Napoleão – Piano Concertos – Artur Pizarro (Romantic Piano Concerto – 64)\Oswald, Napoleão - Piano Concertos - Artur Pizarro (Romantic Piano Concerto - 64).wav
Peak level 100.0 % Extraction speed 6.0 X Range quality 99.9 % Test CRC DDD82D78 Copy CRC DDD82D78 Copy OK
No errors occurred
AccurateRip summary
Track 1 not present in databaseTrack 2 not present in databaseTrack 3 not present in databaseTrack 4 not present in databaseTrack 5 not present in databaseTrack 6 not present in database
None of the tracks are present in the AccurateRip database
End of status report
==== Log checksum 68AE517C16B2B3F1DAB8129427CC0B4E2649170118A52B5B8222A85DC0DCFEB8 ====

Содержание индексной карты (.CUE)

REM GENRE ClassicalREM DATE 2013REM DISCID 430FBD06REM COMMENT "ExactAudioCopy v1.0b3"CATALOG 0034571179841PERFORMER "Artur Pizarro & Martyn Brabbins"TITLE "Oswald & Napoleao – Piano Concertos – Artur Pizarro"FILE "Oswald & Napoleao – Piano Concertos – Artur Pizarro.flac" WAVE TRACK 01 AUDIO TITLE "Oswald - Piano Concerto in G minor, Op. 10 (ca. 1886) - I. Allegro (un poco agitato)" PERFORMER "Artur Pizarro & Martyn Brabbins" ISRC GBAJY1498401 INDEX 01 00:00:00 TRACK 02 AUDIO TITLE "Oswald - Piano Concerto in G minor, Op. 10 (ca. 1886) - II. Adagio -" PERFORMER "Artur Pizarro & Martyn Brabbins" ISRC GBAJY1498402 INDEX 01 14:21:54 TRACK 03 AUDIO TITLE "Oswald - Piano Concerto in G minor, Op. 10 (ca. 1886) - III. Allegro" PERFORMER "Artur Pizarro & Martyn Brabbins" ISRC GBAJY1498403 INDEX 01 23:43:39 TRACK 04 AUDIO TITLE "Napoleao - Piano Concerto No. 2 in E flat minor, Op. 31 - I. Andantino maestoso" PERFORMER "Artur Pizarro & Martyn Brabbins" ISRC GBAJY1498404 INDEX 00 30:04:05 INDEX 01 30:10:67 TRACK 05 AUDIO TITLE "Napoleao - Piano Concerto No. 2 in E flat minor, Op. 31 - II. Scherzo. Allegro vivace" PERFORMER "Artur Pizarro & Martyn Brabbins" ISRC GBAJY1498405 INDEX 01 50:03:30 TRACK 06 AUDIO TITLE "Napoleao - Piano Concerto No. 2 in E flat minor, Op. 31 - III. Allegro - Piu vivo" PERFORMER "Artur Pizarro & Martyn Brabbins" ISRC GBAJY1498405 INDEX 01 54:14:73

Вариант индексной карты (.CUE) с выставленными зазорами

REM GENRE ClassicalREM DATE 2013REM DISCID 430FBD06REM COMMENT "ExactAudioCopy v1.0b3"CATALOG 0034571179841PERFORMER "Artur Pizarro & Martyn Brabbins"TITLE "Oswald & Napoleao – Piano Concertos – Artur Pizarro"FILE "Oswald & Napoleao – Piano Concertos – Artur Pizarro.flac" WAVE TRACK 01 AUDIO TITLE "Oswald - Piano Concerto in G minor, Op. 10 (ca. 1886) - I. Allegro (un poco agitato)" PERFORMER "Artur Pizarro & Martyn Brabbins" ISRC GBAJY1498401 INDEX 00 00:00:00 INDEX 01 00:02:24 TRACK 02 AUDIO TITLE "Oswald - Piano Concerto in G minor, Op. 10 (ca. 1886) - II. Adagio -" PERFORMER "Artur Pizarro & Martyn Brabbins" ISRC GBAJY1498402 INDEX 00 14:17:72 INDEX 01 14:21:54 TRACK 03 AUDIO TITLE "Oswald - Piano Concerto in G minor, Op. 10 (ca. 1886) - III. Allegro" PERFORMER "Artur Pizarro & Martyn Brabbins" ISRC GBAJY1498403 INDEX 01 23:43:55 TRACK 04 AUDIO TITLE "Napoleao - Piano Concerto No. 2 in E flat minor, Op. 31 - I. Andantino maestoso" PERFORMER "Artur Pizarro & Martyn Brabbins" ISRC GBAJY1498404 INDEX 00 30:04:05 INDEX 01 30:10:67 TRACK 05 AUDIO TITLE "Napoleao - Piano Concerto No. 2 in E flat minor, Op. 31 - II. Scherzo. Allegro vivace" PERFORMER "Artur Pizarro & Martyn Brabbins" ISRC GBAJY1498405 INDEX 00 49:59:71 INDEX 01 50:03:30 TRACK 06 AUDIO TITLE "Napoleao - Piano Concerto No. 2 in E flat minor, Op. 31 - III. Allegro - Piu vivo" PERFORMER "Artur Pizarro & Martyn Brabbins" ISRC GBAJY1498405 INDEX 01 54:14:73 INDEX 02 67:01:28
[teatrix.ru].t9874.torrent 
Торрент: Зарегистрирован [ 2015-10-25 20:37 ] · 2062BEF2BD02031970306A10C5F2BB62BEBEA6AB

Скачать .torrent

Скачать

21 KB

Статус: проверено
Скачан: 0 раз
Размер: 253 MB
terms.php



Быстрый ответ

Имя:

      
Для отправки сообщений необходимо включить JavaScript
Показать сообщения:    

Текущее время: 04-Дек 02:50

Часовой пояс: UTC + 3


Вы можете начинать темы
Вы можете отвечать на сообщения
Вы не можете редактировать свои сообщения
Вы не можете удалять свои сообщения
Вы не можете голосовать в опросах
Вы не можете прикреплять файлы к сообщениям
Вы можете скачивать файлы