(Classical) Satie, Piazzolla, Legrand, Messiaen, Ravel, Kosma, Reinhardt - Paris (Alison Balsom;Karadaglic,Cherry, Windsor; The Guy Barker Orchestra/Barker,Redmond) - 2014, FLAC (image+.cue) lossless


Статистика раздачи [Обновить пиров]
Размер:  234 MB   |    Зарегистрирован:  1 год 1 месяц   |    Скачан:  0 раз

Полного источника не было: Никогда

Личеров:  1  [  0 KB/s  ]   Подробная статистика пиров
 
   
 
 
 

[Цитировать]

Satie, Piazzolla, Legrand, Messiaen, Ravel, Kosma, Reinhardt - Paris
(Alison Balsom;Karadaglic,Cherry, Windsor; The Guy Barker Orchestra/Barker,Redmond)
Жанр: Classical
Страна-производитель диска: E.U.
Год издания диска: 2014
Издатель (лейбл): Warner Classics
Номер по каталогу: 0825646327898
Дата записи: 2014
Аудиокодек: FLAC
Тип рипа: image+.cue
Битрейт аудио: lossless
Продолжительность: 0:52:04
Источник: JVA
Наличие сканов в содержимом раздачи: да
Треклист:
Erik Satie (1866-1925)
01. Gymnopédie No.3 (2.32)
Astor Piazzolla (1921-1992)
02. Café 1930 (7.08)
03. Oblivion (4.08)
Michel Legrand (b,1932)/Eddy Marnay (1920-2003)/Eddie Barclay (1921-2005)
04. La Valse des Lilas (3.31)
Olivier Messiaen (1908-1992)
Le Baiser de l'Enfant Jesus (Vingt Regards sur l`Enfant Jesus)
05. Tres lent, calme (5.45)
06. Modéré (2.03)
07. Modéré (2.55)
Maurice Ravel (1875-1937)
08. Pièce en forme de Habanera (2.44)
Piano Concerto in G
09. II. Adagio assai 8.21
Erik Satie
10 Gnossienne No.3 (3.23)
Joseph Kosma (1905-1969)
11. Les Feuilles mortes (Autumn Leaves) (5.00)
Django Reinhardt (1910-1953)
12. Nuages (4.16)
Исполнители:
Alison Balsom trumpet
Milos Karadaglic guitar (2)
Al Cherry guitar (11)
Grant Windsor piano (12)
The Guy Barker Orchestra (1,3-12)
Guy Barker conductor (1, 3, 4, 8, 10-12) ■ Timothy Redmond conductor (5-7,9)

Лог создания рипа

Exact Audio Copy V0.99 prebeta 5 from 4. May 2009
Отчёт EAC об извлечении, выполненном 3. октября 2014, 13:58
Alison Balsom / Paris
Дисковод: ATAPI iHAS124 E Adapter: 0 ID: 0
Режим чтения : ДостоверностьИспользование точного потока : ДаОтключение кэша аудио : ДаИспользование указателей C2 : Нет
Коррекция смещения при чтении : 6Способность читать области Lead-in и Lead-out : НетЗаполнение пропущенных сэмплов тишиной : ДаУдаление блоков с тишиной в начале и конце : НетПри вычислениях CRC использовались нулевые сэмплы : ДаИнтерфейс : Встроенный Win32-интерфейс для Win NT/2000
Выходной формат : Пользовательский кодировщикВыбранный битрейт : 768 kBit/sКачество : ВысокийДобавление ID3-тэга : НетУтилита сжатия : C:\Program Files\Exact Audio Copy\Flac\flac.exeДополнительные параметры : -6 -V -T "ARTIST=%a" -T "TITLE=%t" -T "ALBUM=%g" -T "DATE=%y" -T "TRACKNUMBER=%n" -T "GENRE=%m" -T "COMMENT=%e" %s -o %d
TOC извлечённого CD
Трек | Старт | Длительность | Начальный сектор | Конечный сектор --------------------------------------------------------------------- 1 | 0:00.00 | 2:32.18 | 0 | 11417 2 | 2:32.18 | 7:08.55 | 11418 | 43572 3 | 9:40.73 | 4:08.17 | 43573 | 62189 4 | 13:49.15 | 3:33.00 | 62190 | 78164 5 | 17:22.15 | 5:44.65 | 78165 | 104029 6 | 23:07.05 | 2:03.37 | 104030 | 113291 7 | 25:10.42 | 2:59.38 | 113292 | 126754 8 | 28:10.05 | 2:46.44 | 126755 | 139248 9 | 30:56.49 | 8:25.59 | 139249 | 177182 10 | 39:22.33 | 3:25.19 | 177183 | 192576 11 | 42:47.52 | 5:00.60 | 192577 | 215136 12 | 47:48.37 | 4:16.21 | 215137 | 234357
Характеристики диапазона извлечения и сообщения об ошибках
Выбранный диапазон
Имя файла C:\EAC\Alison Balsom - Paris\Alison Balsom - Paris.wav
Пиковый уровень 99.9 % Качество диапазона 100.0 % CRC копии 62CD8966 Копирование... OK
Ошибок не произошло
AccurateRip: сводка
Трек 1 нет в базе данныхТрек 2 нет в базе данныхТрек 3 нет в базе данныхТрек 4 нет в базе данныхТрек 5 нет в базе данныхТрек 6 нет в базе данныхТрек 7 нет в базе данныхТрек 8 нет в базе данныхТрек 9 нет в базе данныхТрек 10 нет в базе данныхТрек 11 нет в базе данныхТрек 12 нет в базе данных
Ни одного трека нет в базе AccurateRip
Конец отчёта

Лог проверки качества

Скриншот спектра частот

[teatrix.ru].t9875.torrent 
Торрент: Зарегистрирован [ 2015-10-25 20:37 ] · 3989E05A818BB20CB7A9586705EE59EFBCFEB956

Скачать .torrent

Скачать

20 KB

Статус: проверено
Скачан: 0 раз
Размер: 234 MB
terms.php



Быстрый ответ

Имя:

      
Для отправки сообщений необходимо включить JavaScript
Показать сообщения:    

Текущее время: 09-Дек 06:55

Часовой пояс: UTC + 3


Вы можете начинать темы
Вы можете отвечать на сообщения
Вы не можете редактировать свои сообщения
Вы не можете удалять свои сообщения
Вы не можете голосовать в опросах
Вы не можете прикреплять файлы к сообщениям
Вы можете скачивать файлы