(Classical) Francesco Mancini - 12 Recorder Concertos - Corina Marti, Capella Tiberina, Paolo Perrone, Alexandra Nigito - 2CD - 2012, FLAC (image+.cue) lossless


Статистика раздачи [Обновить пиров]
Размер:  576 MB   |    Зарегистрирован:  1 год 1 месяц   |    Скачан:  0 раз

Полного источника не было: Никогда

Личеров:  1  [  0 KB/s  ]   Подробная статистика пиров
 
   
 
 
 

[Цитировать]

Francesco Mancini - 12 Recorder Concertos - Corina Marti, Capella Tiberina, Paolo Perrone, Alexandra Nigito - 2CD
Жанр: Classical
Год издания диска: 2012
Издатель (лейбл): Brilliant Classics
Номер по каталогу: 94324
Дата записи: 2011
Аудиокодек: FLAC
Тип рипа: image+.cue
Битрейт аудио: lossless
Продолжительность: 1:55:40
Источник: собственный рип
Наличие сканов в содержимом раздачи: да
Треклист:
Francesco Mancini (1672-1737)
12 Recorder Concertos (Naples, 1725)
CD1
[1]-[5] Concerto No.8 in C minor
[6]-[10] Concerto No.5 in G major
[11]-[15] Concerto No.19 in E minor
[16]-[19] Concerto No.20 in C minor
[20]-[23] Concerto No.18 in F major
[24]-[27] Concerto No.14 in G minor
CD2
[1]-[4] Concerto No.10 in B flat major
[5]-[8] Concerto No.1 in C minor
[9]-[12] Concerto No.13 in G minor
[13]-[16] Concerto No.16 in F major
[17]-[20] Concerto No.6 in D minor
[21]-[25] Concerto No.17 in A minor
Исполнители:
Corina Marti recorder
Capella Tiberina
Paolo Perrone
concertmaster
Alexandra Nigito maestro al cembalo

Лог создания рипа: CD1

Exact Audio Copy V1.0 beta 3 from 29. August 2011
EAC extraction logfile from 2. October 2014, 2:35
Corina Marti, Capella Tiberina, Paolo Perrone, Alexandra Nigito / Mancini - 12 Recorder Concertos - CD1
Used drive : HL-DT-STDVDRAM GU70N Adapter: 0 ID: 0
Read mode : SecureUtilize accurate stream : YesDefeat audio cache : YesMake use of C2 pointers : No
Read offset correction : 48Overread into Lead-In and Lead-Out : NoFill up missing offset samples with silence : YesDelete leading and trailing silent blocks : NoNull samples used in CRC calculations : YesUsed interface : Native Win32 interface for Win NT & 2000
Used output format : User Defined EncoderSelected bitrate : 128 kBit/sQuality : HighAdd ID3 tag : NoCommand line compressor : C:\Program Files (x86)\Exact Audio Copy\Flac\flac.exeAdditional command line options : -V -8 -T "Date=%year%" -T "Genre=%genre%" %source%
TOC of the extracted CD
Track | Start | Length | Start sector | End sector --------------------------------------------------------- 1 | 0:00.00 | 1:44.46 | 0 | 7845 2 | 1:44.46 | 1:12.12 | 7846 | 13257 3 | 2:56.58 | 2:46.13 | 13258 | 25720 4 | 5:42.71 | 1:34.56 | 25721 | 32826 5 | 7:17.52 | 1:27.69 | 32827 | 39420 6 | 8:45.46 | 1:39.60 | 39421 | 46905 7 | 10:25.31 | 1:13.47 | 46906 | 52427 8 | 11:39.03 | 2:53.02 | 52428 | 65404 9 | 14:32.05 | 1:33.44 | 65405 | 72423 10 | 16:05.49 | 2:03.53 | 72424 | 81701 11 | 18:09.27 | 1:16.50 | 81702 | 87451 12 | 19:26.02 | 0:58.04 | 87452 | 91805 13 | 20:24.06 | 4:06.57 | 91806 | 110312 14 | 24:30.63 | 1:32.10 | 110313 | 117222 15 | 26:02.73 | 1:55.60 | 117223 | 125907 16 | 27:58.58 | 1:40.53 | 125908 | 133460 17 | 29:39.36 | 3:51.70 | 133461 | 150855 18 | 33:31.31 | 1:59.61 | 150856 | 159841 19 | 35:31.17 | 1:41.59 | 159842 | 167475 20 | 37:13.01 | 3:02.56 | 167476 | 181181 21 | 40:15.57 | 3:07.24 | 181182 | 195230 22 | 43:23.06 | 1:24.03 | 195231 | 201533 23 | 44:47.09 | 2:22.46 | 201534 | 212229 24 | 47:09.55 | 3:10.52 | 212230 | 226531 25 | 50:20.32 | 2:53.23 | 226532 | 239529 26 | 53:13.55 | 2:36.01 | 239530 | 251230 27 | 55:49.56 | 3:14.34 | 251231 | 265814
Range status and errors
Selected range
Filename C:\temp\Mancini - 12 Recorder Concertos\Mancini - 12 Recorder Concertos - CD1.wav
Peak level 99.2 % Extraction speed 5.1 X Range quality 100.0 % Test CRC 688AE946 Copy CRC 688AE946 Copy OK
No errors occurred
AccurateRip summary
Track 1 not present in databaseTrack 2 not present in databaseTrack 3 not present in databaseTrack 4 not present in databaseTrack 5 not present in databaseTrack 6 not present in databaseTrack 7 not present in databaseTrack 8 not present in databaseTrack 9 not present in databaseTrack 10 not present in databaseTrack 11 not present in databaseTrack 12 not present in databaseTrack 13 not present in databaseTrack 14 not present in databaseTrack 15 not present in databaseTrack 16 not present in databaseTrack 17 not present in databaseTrack 18 not present in databaseTrack 19 not present in databaseTrack 20 not present in databaseTrack 21 not present in databaseTrack 22 not present in databaseTrack 23 not present in databaseTrack 24 not present in databaseTrack 25 not present in databaseTrack 26 not present in databaseTrack 27 not present in database
None of the tracks are present in the AccurateRip database
End of status report
==== Log checksum 6FF4858B9EB386AD4527353B414E4FF335895E5800775012694177030EDCB94B ====

Лог создания рипа: CD2

Exact Audio Copy V1.0 beta 3 from 29. August 2011
EAC extraction logfile from 2. October 2014, 20:00
Corina Marti, Capella Tiberina, Paolo Perrone, Alexandra Nigito / Mancini - 12 Recorder Concertos - CD2
Used drive : HL-DT-STDVDRAM GU70N Adapter: 0 ID: 0
Read mode : SecureUtilize accurate stream : YesDefeat audio cache : YesMake use of C2 pointers : No
Read offset correction : 48Overread into Lead-In and Lead-Out : NoFill up missing offset samples with silence : YesDelete leading and trailing silent blocks : NoNull samples used in CRC calculations : YesUsed interface : Native Win32 interface for Win NT & 2000
Used output format : User Defined EncoderSelected bitrate : 128 kBit/sQuality : HighAdd ID3 tag : NoCommand line compressor : C:\Program Files (x86)\Exact Audio Copy\Flac\flac.exeAdditional command line options : -V -8 -T "Date=%year%" -T "Genre=%genre%" %source%
TOC of the extracted CD
Track | Start | Length | Start sector | End sector --------------------------------------------------------- 1 | 0:00.00 | 2:53.29 | 0 | 13003 2 | 2:53.29 | 2:39.17 | 13004 | 24945 3 | 5:32.46 | 0:54.66 | 24946 | 29061 4 | 6:27.37 | 1:31.73 | 29062 | 35959 5 | 7:59.35 | 1:53.04 | 35960 | 44438 6 | 9:52.39 | 2:14.64 | 44439 | 54552 7 | 12:07.28 | 2:29.14 | 54553 | 65741 8 | 14:36.42 | 2:18.06 | 65742 | 76097 9 | 16:54.48 | 3:15.17 | 76098 | 90739 10 | 20:09.65 | 3:04.21 | 90740 | 104560 11 | 23:14.11 | 1:56.54 | 104561 | 113314 12 | 25:10.65 | 1:53.42 | 113315 | 121831 13 | 27:04.32 | 3:23.34 | 121832 | 137090 14 | 30:27.66 | 3:01.03 | 137091 | 150668 15 | 33:28.69 | 2:29.58 | 150669 | 161901 16 | 35:58.52 | 2:08.14 | 161902 | 171515 17 | 38:06.66 | 2:30.24 | 171516 | 182789 18 | 40:37.15 | 3:06.44 | 182790 | 196783 19 | 43:43.59 | 1:37.15 | 196784 | 204073 20 | 45:20.74 | 1:56.48 | 204074 | 212821 21 | 47:17.47 | 1:34.51 | 212822 | 219922 22 | 48:52.23 | 1:01.05 | 219923 | 224502 23 | 49:53.28 | 2:51.08 | 224503 | 237335 24 | 52:44.36 | 1:58.17 | 237336 | 246202 25 | 54:42.53 | 1:54.21 | 246203 | 254773
Range status and errors
Selected range
Filename C:\temp\Mancini - 12 Recorder Concertos\Mancini - 12 Recorder Concertos - CD2.wav
Peak level 99.1 % Extraction speed 5.1 X Range quality 100.0 % Test CRC 1015DBE4 Copy CRC 1015DBE4 Copy OK
No errors occurred
AccurateRip summary
Track 1 not present in databaseTrack 2 not present in databaseTrack 3 not present in databaseTrack 4 not present in databaseTrack 5 not present in databaseTrack 6 not present in databaseTrack 7 not present in databaseTrack 8 not present in databaseTrack 9 not present in databaseTrack 10 not present in databaseTrack 11 not present in databaseTrack 12 not present in databaseTrack 13 not present in databaseTrack 14 not present in databaseTrack 15 not present in databaseTrack 16 not present in databaseTrack 17 not present in databaseTrack 18 not present in databaseTrack 19 not present in databaseTrack 20 not present in databaseTrack 21 not present in databaseTrack 22 not present in databaseTrack 23 not present in databaseTrack 24 not present in databaseTrack 25 not present in database
None of the tracks are present in the AccurateRip database
End of status report
==== Log checksum F29A16595296070CBA47A12F580F989D1914F08A1EA5B775668623100AC5ED96 ====
[teatrix.ru].t9876.torrent 
Торрент: Зарегистрирован [ 2015-10-25 20:37 ] · 029F44FEED8EC3E45608AB64CD276667317D6A63

Скачать .torrent

Скачать

25 KB

Статус: проверено
Скачан: 0 раз
Размер: 576 MB
terms.php



Быстрый ответ

Имя:

      
Для отправки сообщений необходимо включить JavaScript
Показать сообщения:    

Текущее время: 07-Дек 19:28

Часовой пояс: UTC + 3


Вы можете начинать темы
Вы можете отвечать на сообщения
Вы не можете редактировать свои сообщения
Вы не можете удалять свои сообщения
Вы не можете голосовать в опросах
Вы не можете прикреплять файлы к сообщениям
Вы можете скачивать файлы