(Classical) Wolfgang Amadeus Mozart — Violin Concertos № 1 & 2 • String Quartet № 8 • Divertimento № 7 (KV 94, 169, 190, 205, 207, 211, 315 & 373) (Ludovit Rajter, Bohdan Warchal, Libor Pesek, Ladislav Slovak) — 1998, APE (image+.cue) lossles


Статистика раздачи [Обновить пиров]
Размер:  625 MB   |    Зарегистрирован:  1 год 1 месяц   |    Скачан:  0 раз

Полного источника не было: Никогда

Личеров:  1  [  0 KB/s  ]   Подробная статистика пиров
 
   
 
 
 

[Цитировать]

Violin Concertos № 1 & 2 • String Quartet № 8 • Divertimento № 7 (KV 94, 169, 190, 205, 207, 211, 315 & 373)- Жанр: Classical
Страна-производитель дисков: Чехия
Год издания дисков: 1998
Издатель (лейбл): Selected Sound Carrier (Prestige classics)
Номера по каталогу: CD 1930.2056-2 / CD 1930.2057-2
CATALOG: 7619929158520
Композитор: Wolfgang Amadeus Mozart
Аудио кодек: ape
Тип рипа: image+.cue
Битрейт аудио: lossless
Продолжительность: 02h13'56"
Источник: собственный рип
Наличие сканов в содержимом раздачи: нет-

Треклист

CD1 – 01h13'13"
Violin Concerto № 1 B-Dur KV 207
01. I. Allegro moderato [00h08'35"]
02. II. Adagio [00h09'45"]
03. III. Presto [00h07'12"]
Violin Concerto № 2 D-Dur KV 211
04. I. Allegro moderato [00h09'59"]
05. II. Andante [00h07'06"]
06. III. Allegro [00h05'06"]
2 Violins Concerto C-Dur KV 190
07. I. Allegro con spirito [00h08'16"]
08. II. Andantino grazioso [00h09'58"]
09. III. Tempo di menuetto vivace [00h07'18"]-(01-06) Radio Bratislava Symphony Orchestra, cond. Ludovít Rajter, Violin – Aladár Mózi
(07-09) Slovak Chamber Orchestra, cond. Bohdan Warchal, Violin – Anna & Quido Holbling-

EAC log

Exact Audio Copy V0.99 prebeta 5 from 4. May 2009
Отчёт EAC об извлечении, выполненном 28. сентября 2014, 20:21
Mozart / Violin Concertos
Дисковод: PIONEER DVD-RW  DVR-111D   Adapter: 1  ID: 0
Режим чтения                 : Достоверность
Использование точного потока : Да
Отключение кэша аудио        : Да
Использование указателей C2  : Нет
Коррекция смещения при чтении                     : 48
Способность читать области Lead-in и Lead-out     : Нет
Заполнение пропущенных сэмплов тишиной            : Да
Удаление блоков с тишиной в начале и конце        : Нет
При вычислениях CRC использовались нулевые сэмплы : Да
Интерфейс                                         : Установленный внешний ASPI-интерфейс
Выходной формат          : Monkey's Audio (без потерь)
Выбранный битрейт        : Normal Lossless Compression
Качество                 : Высокий
Добавление ID3-тэга      : Нет
Утилита сжатия           : C:\Program Files\Monkey's Audio\MAC.exe
TOC извлечённого CD
     Трек |   Старт  | Длительность | Начальный сектор | Конечный сектор
    ---------------------------------------------------------------------
       1  |  0:00.00 |    8:34.47   |           0      |      38596
       2  |  8:34.47 |    9:44.63   |       38597      |      82459
       3  | 18:19.35 |    7:11.60   |       82460      |     114844
       4  | 25:31.20 |    9:59.10   |      114845      |     159779
       5  | 35:30.30 |    7:05.60   |      159780      |     191714
       6  | 42:36.15 |    5:06.20   |      191715      |     214684
       7  | 47:42.35 |    8:15.47   |      214685      |     251856
       8  | 55:58.07 |    9:57.45   |      251857      |     296676
       9  | 65:55.52 |    7:17.40   |      296677      |     329491
Характеристики диапазона извлечения и сообщения об ошибках
Выбранный диапазон
     Имя файла D:\Музыка lossless\Mozart Violin Concertos & Other Works\CD1\Mozart - Violin Concertos.wav
     Пиковый уровень 95.0 %
     Качество диапазона 99.9 %
     CRC теста 6D2E8349
     CRC копии 6D2E8349
     Копирование... OK
Ошибок не произошло
AccurateRip: сводка
Трек  1  точность не определена (достоверность 3)  [292E0584], AccurateRip вернул [F17EFFF2]
Трек  2  точность не определена (достоверность 3)  [510ABF73], AccurateRip вернул [4B69B9C5]
Трек  3  точность не определена (достоверность 3)  [97F2EE70], AccurateRip вернул [A61A81C3]
Трек  4  точность не определена (достоверность 3)  [C0168254], AccurateRip вернул [17C4DC28]
Трек  5  точность не определена (достоверность 3)  [B8F02D10], AccurateRip вернул [5C46BF67]
Трек  6  точность не определена (достоверность 3)  [03752D16], AccurateRip вернул [0F0E2871]
Трек  7  точность не определена (достоверность 2)  [22266448], AccurateRip вернул [C5873FA3]
Трек  8  точность не определена (достоверность 3)  [8EDCD4D5], AccurateRip вернул [57859FEF]
Трек  9  точность не определена (достоверность 3)  [0FA1D8DF], AccurateRip вернул [1BA27622]
Ни один трек не прошёл проверки на точность
В вашей базе может быть иной вариант штамповки диска
Конец отчёта

-

CUE

REM GENRE Classical
REM DATE 1998
REM DISCID 71112909
REM COMMENT "ExactAudioCopy v0.99pb5"
PERFORMER "Mozart"
TITLE "Violin Concertos"
FILE "Mozart - Violin Concertos.ape" WAVE
  TRACK 01 AUDIO
    TITLE "Violin Concerto № 1 B-Dur KV 207 – I. Allegro moderato"
    PERFORMER "Mozart"
    INDEX 01 00:00:00
  TRACK 02 AUDIO
    TITLE "Violin Concerto № 1 B-Dur KV 207 – II. Adagio"
    PERFORMER "Mozart"
    INDEX 01 08:34:47
  TRACK 03 AUDIO
    TITLE "Violin Concerto № 1 B-Dur KV 207 – III. Presto"
    PERFORMER "Mozart"
    INDEX 01 18:19:35
  TRACK 04 AUDIO
    TITLE "Violin Concerto № 2 D-Dur KV 211 – I. Allegro moderato"
    PERFORMER "Mozart"
    INDEX 00 25:22:15
    INDEX 01 25:31:20
  TRACK 05 AUDIO
    TITLE "Violin Concerto № 2 D-Dur KV 211 – II. Andante"
    PERFORMER "Mozart"
    INDEX 01 35:30:30
  TRACK 06 AUDIO
    TITLE "Violin Concerto № 2 D-Dur KV 211 – III. Allegro"
    PERFORMER "Mozart"
    INDEX 01 42:36:15
  TRACK 07 AUDIO
    TITLE "2 Violins Concerto C-Dur KV 190 – I. Allegro con spirito"
    PERFORMER "Mozart"
    INDEX 00 47:34:35
    INDEX 01 47:42:35
  TRACK 08 AUDIO
    TITLE "2 Violins Concerto C-Dur KV 190 – II. Andantino grazioso"
    PERFORMER "Mozart"
    INDEX 01 55:58:07
  TRACK 09 AUDIO
    TITLE "2 Violins Concerto C-Dur KV 190 – III. Tempo di menuetto vivace"
    PERFORMER "Mozart"
    INDEX 01 65:55:52
-CD2 – 01h00'43"
String Quartet № 8 F-Dur KV 169
01. I. Allegretto [00h05'30"]
02. II. Andante [00h04'15"]
03. III. Menuetto. Allegretto [00h06'15"]
04. IV. Allegretto [00h06'05"]
Divertimento № 7 D-Dur KV 205
05. I. Largo. Allegro [00h06'30"]
06. II. Menuetto [00h02'44"]
07. III. Adagio [00h05'36"]
08. IV. Menuetto II [00h03'04"]
09. V. Finale. Presto [00h03'40"]
10. Menuet D-Dur KV 94 [00h04'18"]
11. Flute & Orchestra Rondo C-Dur KV 373 [00h05'48"]
12. Flute & Orchestra Andante C-Dur KV 315 [00h06'58"]-(01-04) Slovak String Quartet – A. Mozí, A. Nemec, M. Telecký, F. Tannenberger
(05-09) Cappella Istropolitana, cond. Libor Pesek
(10) Violin – Aladar Mozí, Piano – Danica Móziová
(11-12) Slovak Philharmonic Orchestra, cond. Ladislav Slovák-

EAC log

Exact Audio Copy V0.99 prebeta 5 from 4. May 2009
Отчёт EAC об извлечении, выполненном 28. сентября 2014, 21:59
Mozart / String Quartet Divertimento
Дисковод: PIONEER DVD-RW  DVR-111D   Adapter: 1  ID: 0
Режим чтения                 : Достоверность
Использование точного потока : Да
Отключение кэша аудио        : Да
Использование указателей C2  : Нет
Коррекция смещения при чтении                     : 48
Способность читать области Lead-in и Lead-out     : Нет
Заполнение пропущенных сэмплов тишиной            : Да
Удаление блоков с тишиной в начале и конце        : Нет
При вычислениях CRC использовались нулевые сэмплы : Да
Интерфейс                                         : Установленный внешний ASPI-интерфейс
Выходной формат          : Monkey's Audio (без потерь)
Выбранный битрейт        : Normal Lossless Compression
Качество                 : Высокий
Добавление ID3-тэга      : Нет
Утилита сжатия           : C:\Program Files\Monkey's Audio\MAC.exe
TOC извлечённого CD
     Трек |   Старт  | Длительность | Начальный сектор | Конечный сектор
    ---------------------------------------------------------------------
       1  |  0:00.00 |    5:30.00   |           0      |      24749
       2  |  5:30.00 |    4:15.00   |       24750      |      43874
       3  |  9:45.00 |    6:15.17   |       43875      |      72016
       4  | 16:00.17 |    6:05.00   |       72017      |      99391
       5  | 22:05.17 |    6:30.03   |       99392      |     128644
       6  | 28:35.20 |    2:43.72   |      128645      |     140941
       7  | 31:19.17 |    5:35.70   |      140942      |     166136
       8  | 36:55.12 |    3:04.03   |      166137      |     179939
       9  | 39:59.15 |    3:40.22   |      179940      |     196461
      10  | 43:39.37 |    4:18.35   |      196462      |     215846
      11  | 47:57.72 |    5:47.40   |      215847      |     241911
      12  | 53:45.37 |    6:57.50   |      241912      |     273236
Характеристики диапазона извлечения и сообщения об ошибках
Выбранный диапазон
     Имя файла D:\Музыка lossless\Mozart Violin Concertos & Other Works\CD2\Mozart - String Quartet Divertimento.wav
     Пиковый уровень 94.6 %
     Качество диапазона 100.0 %
     CRC теста C871EF14
     CRC копии C871EF14
     Копирование... OK
Ошибок не произошло
AccurateRip: сводка
Трек  1  точность не определена (достоверность 3)  [10FACD42], AccurateRip вернул [EA611F2D]
Трек  2  точность не определена (достоверность 3)  [A215F8E8], AccurateRip вернул [3BE10488]
Трек  3  точность не определена (достоверность 3)  [6748DE67], AccurateRip вернул [C4E0E549]
Трек  4  точность не определена (достоверность 3)  [AB3135BF], AccurateRip вернул [E6995E52]
Трек  5  точность не определена (достоверность 3)  [527188C7], AccurateRip вернул [8F4C7197]
Трек  6  точность не определена (достоверность 3)  [855B17A3], AccurateRip вернул [91908D95]
Трек  7  точность не определена (достоверность 3)  [6C0A8A94], AccurateRip вернул [EB7BC629]
Трек  8  точность не определена (достоверность 3)  [65742E13], AccurateRip вернул [D6ADF11F]
Трек  9  точность не определена (достоверность 3)  [85FD1E06], AccurateRip вернул [4E96B1C9]
Трек 10  точность не определена (достоверность 3)  [20FB3760], AccurateRip вернул [2240C07A]
Трек 11  точность не определена (достоверность 3)  [249F672D], AccurateRip вернул [F6F540F8]
Трек 12  точность не определена (достоверность 3)  [5F2E6482], AccurateRip вернул [DB922932]
Ни один трек не прошёл проверки на точность
В вашей базе может быть иной вариант штамповки диска
Конец отчёта

-

CUE

REM GENRE Classical
REM DATE 1998
REM DISCID A40E3B0C
REM COMMENT "ExactAudioCopy v0.99pb5"
PERFORMER "Mozart"
TITLE "String Quartet Divertimento"
FILE "Mozart - String Quartet Divertimento.ape" WAVE
  TRACK 01 AUDIO
    TITLE "String Quartet № 8 F-Dur KV 169 – I. Allegretto"
    PERFORMER "Mozart"
    INDEX 01 00:00:00
  TRACK 02 AUDIO
    TITLE "String Quartet № 8 F-Dur KV 169 – II. Andante"
    PERFORMER "Mozart"
    INDEX 01 05:30:00
  TRACK 03 AUDIO
    TITLE "String Quartet № 8 F-Dur KV 169 – III. Menuetto. Allegretto"
    PERFORMER "Mozart"
    INDEX 01 09:45:00
  TRACK 04 AUDIO
    TITLE "String Quartet № 8 F-Dur KV 169 – IV. Allegretto"
    PERFORMER "Mozart"
    INDEX 01 16:00:17
  TRACK 05 AUDIO
    TITLE "Divertimento № 7 D-Dur KV 205 – I. Largo. Allegro"
    PERFORMER "Mozart"
    INDEX 00 21:55:70
    INDEX 01 22:05:17
  TRACK 06 AUDIO
    TITLE "Divertimento № 7 D-Dur KV 205 – II. Menuetto"
    PERFORMER "Mozart"
    INDEX 01 28:35:20
  TRACK 07 AUDIO
    TITLE "Divertimento № 7 D-Dur KV 205 – III. Adagio"
    PERFORMER "Mozart"
    INDEX 01 31:19:17
  TRACK 08 AUDIO
    TITLE "Divertimento № 7 D-Dur KV 205 – IV. Menuetto II"
    PERFORMER "Mozart"
    INDEX 01 36:55:12
  TRACK 09 AUDIO
    TITLE "Divertimento № 7 D-Dur KV 205 – V. Finale. Presto"
    PERFORMER "Mozart"
    INDEX 01 39:59:15
  TRACK 10 AUDIO
    TITLE "Menuet D-Dur KV 94"
    PERFORMER "Mozart"
    INDEX 00 43:33:08
    INDEX 01 43:39:37
  TRACK 11 AUDIO
    TITLE "Flute & Orchestra Rondo C-Dur KV 373"
    PERFORMER "Mozart"
    INDEX 00 47:52:68
    INDEX 01 47:57:72
  TRACK 12 AUDIO
    TITLE "Flute & Orchestra Andante C-Dur KV 315"
    PERFORMER "Mozart"
    INDEX 00 53:38:43
    INDEX 01 53:45:37

-
-
[teatrix.ru].t9877.torrent 
Торрент: Зарегистрирован [ 2015-10-25 20:37 ] · 477F08A77D87C97CB6E4A779A0974546FDCEF74A

Скачать .torrent

Скачать

13 KB

Статус: проверено
Скачан: 0 раз
Размер: 625 MB
terms.php



Быстрый ответ

Имя:

      
Для отправки сообщений необходимо включить JavaScript
Показать сообщения:    

Текущее время: 11-Дек 07:13

Часовой пояс: UTC + 3


Вы можете начинать темы
Вы можете отвечать на сообщения
Вы не можете редактировать свои сообщения
Вы не можете удалять свои сообщения
Вы не можете голосовать в опросах
Вы не можете прикреплять файлы к сообщениям
Вы можете скачивать файлы