(Classical) The Romantic Violin Concerto – Vol. 16: Busoni (+ Beethoven) & Strauss (Becker-Bender, Walker) - 2014, FLAC (image+.cue) lossless


Статистика раздачи [Обновить пиров]
Размер:  268 MB   |    Зарегистрирован:  1 год 1 месяц   |    Скачан:  0 раз

Полного источника не было: Никогда

Личеров:  1  [  0 KB/s  ]   Подробная статистика пиров
 
   
 
 
 

[Цитировать]

The Romantic Violin Concerto – Vol. 16: Busoni (+ Beethoven) & Strauss (Becker-Bender, Walker)
Жанр: Classical
Страна-производитель диска: Франция
Год издания диска: 2014
Издатель (лейбл): Hyperion
Номер по каталогу: CDA68044
Дата записи: 27 и 28 июня 2013 г., Глазго.
Аудиокодек: FLAC
Тип рипа: image+.cue
Битрейт аудио: lossless
Продолжительность: 01:03:03
Источник: odeonmusic
Наличие сканов в содержимом раздачи: да
Треклист:
Данте Микеланджело Бенвенуто Феруччо Бузони (1866 — 1924).
Скрипичный концерт D-dur, op. 35a (1896 — 1897).
01. Allegro moderato. — Gemessen, mit Humor. — [08:14].
02. — Quasi andante. — Poco agitato. — Tempo I. — [08:02].
03. — Allegro impetuoso [07:12].
Людвиг ван Бетховен (1770 — 1827).
Торжественная месса D-dur, op. 123 (1819 — 1823).
Benedictus, переложение Ф. Бузони для скрипки с оркестром, BV B 49 (опубл. 1916).
04. Andante molto cantabile e non troppo mosso [08:47].
Рихард Штраус (1864 — 1949).
Скрипичный концерт d-moll, op. 8 (1881 — 1882).
05. I. Allegro [15:04].
06. II. Lento ma non troppo [06:32].
07. III. Rondo. Prestissimo [09:11].
Исполнители:
Tanja Becker-Bender (скрипка).
BBC Scottish Symphony Orchestra.
Дирижер Garry Walker.

Лог создания рипа

Exact Audio Copy V1.0 beta 3 from 29. August 2011
EAC extraction logfile from 25. July 2014, 13:31
Tanja Becker-Bender / Busoni, Strauss - Violin Concertos - Tanja Becker-Bender (Romantic Violin Concerto – 16)
Used drive : TSSTcorpCDDVDW SH-222BB Adapter: 2 ID: 1
Read mode : SecureUtilize accurate stream : YesDefeat audio cache : YesMake use of C2 pointers : No
Read offset correction : 6Overread into Lead-In and Lead-Out : NoFill up missing offset samples with silence : YesDelete leading and trailing silent blocks : NoNull samples used in CRC calculations : YesUsed interface : Native Win32 interface for Win NT & 2000
Used output format : User Defined EncoderSelected bitrate : 896 kBit/sQuality : HighAdd ID3 tag : NoCommand line compressor : C:\Program Files\Exact Audio Copy\FLAC\FLAC.EXEAdditional command line options : -8 -V -T "TITLE=%title%" -T "ARTIST=%artist%" -T "ALBUMARTIST=%albumartist%" -T "ALBUM=%albumtitle%" -T "DATE=%year%" -T "TRACKNUMBER=%tracknr%" -T "TRACKTOTAL=%numtracks%" -T "GENRE=%genre%" -T "COMMENT=%comment%" -T "PERFORMER=%albuminterpret%" -T "COMPOSER=%composer%" %source% -o %dest%
TOC of the extracted CD
Track | Start | Length | Start sector | End sector --------------------------------------------------------- 1 | 0:00.00 | 8:13.40 | 0 | 37014 2 | 8:13.40 | 8:01.47 | 37015 | 73136 3 | 16:15.12 | 7:12.24 | 73137 | 105560 4 | 23:27.36 | 8:47.24 | 105561 | 145109 5 | 32:14.60 | 15:03.51 | 145110 | 212885 6 | 47:18.36 | 6:31.52 | 212886 | 242262 7 | 53:50.13 | 9:11.08 | 242263 | 283595
Range status and errors
Selected range
Filename G:\Ripped general\[7920] Busoni, Strauss – Violin Concertos – Tanja Becker-Bender (Romantic Violin Concerto – 16)\Busoni, Strauss - Violin Concertos - Tanja Becker-Bender (Romantic Violin Concerto – 16).wav
Peak level 99.3 % Extraction speed 6.6 X Range quality 100.0 % Test CRC 0C0F3C1E Copy CRC 0C0F3C1E Copy OK
No errors occurred
AccurateRip summary
Track 1 not present in databaseTrack 2 not present in databaseTrack 3 not present in databaseTrack 4 not present in databaseTrack 5 not present in databaseTrack 6 not present in databaseTrack 7 not present in database
None of the tracks are present in the AccurateRip database
End of status report
==== Log checksum 516EC8060BE69C4AF1720B7B8D634D494D4834ECB4DDA05B56AF21188FD7C8DF ====

Содержание индексной карты (.CUE)

REM GENRE ClassicalREM DISCID 640EC507REM COMMENT "ExactAudioCopy v1.0b3"CATALOG 0034571280448PERFORMER "Tanja Becker-Bender"TITLE "Busoni & Strauss – Violin Concertos – Tanja Becker-Bender (RVC – 16)"FILE "Busoni & Strauss – Violin Concertos – Tanja Becker-Bender (RVC – 16).flac" WAVE TRACK 01 AUDIO TITLE "Busoni - Violin Concerto in D major, Op. 35a - Allegro moderato -" PERFORMER "Tanja Becker-Bender" ISRC GBAJY1404401 INDEX 01 00:00:00 TRACK 02 AUDIO TITLE "Busoni - Violin Concerto in D major, Op. 35a - Quasi andante -" PERFORMER "Tanja Becker-Bender" ISRC GBAJY1404402 INDEX 01 08:13:40 TRACK 03 AUDIO TITLE "Busoni - Violin Concerto in D major, Op. 35a - Allegro impetuoso" PERFORMER "Tanja Becker-Bender" ISRC GBAJY1404403 INDEX 00 16:15:11 INDEX 01 16:15:12 TRACK 04 AUDIO TITLE "Busoni - Benedictus from Beethoven's Missa solemnis, for violin and orchestra, BV B 49" PERFORMER "Tanja Becker-Bender" ISRC GBAJY1404404 INDEX 00 23:27:35 INDEX 01 23:27:36 TRACK 05 AUDIO TITLE "R. Strauss - Violin Concerto in D minor, Op. 8 - I. Allegro" PERFORMER "Tanja Becker-Bender" ISRC GBAJY1404405 INDEX 00 32:14:59 INDEX 01 32:14:60 TRACK 06 AUDIO TITLE "R. Strauss - Violin Concerto in D minor, Op. 8 - II. Lento ma non troppo" PERFORMER "Tanja Becker-Bender" ISRC GBAJY1404406 INDEX 00 47:18:35 INDEX 01 47:18:36 TRACK 07 AUDIO TITLE "R. Strauss - Violin Concerto in D minor, Op. 8 - III. Rondo. Prestissimo" PERFORMER "Tanja Becker-Bender" ISRC GBAJY1404407 INDEX 00 53:50:12 INDEX 01 53:50:13

Вариант индексной карты (.CUE) с исправленными зазорами

REM GENRE ClassicalREM DISCID 640EC507REM COMMENT "ExactAudioCopy v1.0b3"CATALOG 0034571280448PERFORMER "Tanja Becker-Bender"TITLE "Busoni & Strauss – Violin Concertos – Tanja Becker-Bender (RVC – 16)"FILE "Busoni & Strauss – Violin Concertos – Tanja Becker-Bender (RVC – 16).flac" WAVE TRACK 01 AUDIO TITLE "Busoni - Violin Concerto in D major, Op. 35a - Allegro moderato -" PERFORMER "Tanja Becker-Bender" ISRC GBAJY1404401 INDEX 00 00:00:00 INDEX 01 00:02:61 TRACK 02 AUDIO TITLE "Busoni - Violin Concerto in D major, Op. 35a - Quasi andante -" PERFORMER "Tanja Becker-Bender" ISRC GBAJY1404402 INDEX 01 08:13:40 TRACK 03 AUDIO TITLE "Busoni - Violin Concerto in D major, Op. 35a - Allegro impetuoso" PERFORMER "Tanja Becker-Bender" ISRC GBAJY1404403 INDEX 01 16:15:12 TRACK 04 AUDIO TITLE "Busoni - Benedictus from Beethoven's Missa solemnis, for violin and orchestra, BV B 49" PERFORMER "Tanja Becker-Bender" ISRC GBAJY1404404 INDEX 00 23:19:42 INDEX 01 23:27:36 TRACK 05 AUDIO TITLE "R. Strauss - Violin Concerto in D minor, Op. 8 - I. Allegro" PERFORMER "Tanja Becker-Bender" ISRC GBAJY1404405 INDEX 00 32:06:70 INDEX 01 32:14:60 TRACK 06 AUDIO TITLE "R. Strauss - Violin Concerto in D minor, Op. 8 - II. Lento ma non troppo" PERFORMER "Tanja Becker-Bender" ISRC GBAJY1404406 INDEX 00 47:13:01 INDEX 01 47:18:36 TRACK 07 AUDIO TITLE "R. Strauss - Violin Concerto in D minor, Op. 8 - III. Rondo. Prestissimo" PERFORMER "Tanja Becker-Bender" ISRC GBAJY1404407 INDEX 00 53:49:22 INDEX 01 53:50:13 INDEX 02 62:53:71
[teatrix.ru].t9878.torrent 
Торрент: Зарегистрирован [ 2015-10-25 20:37 ] · 2B7E0E89942E03C238237DA774CDAC57918051D6

Скачать .torrent

Скачать

12 KB

Статус: проверено
Скачан: 0 раз
Размер: 268 MB
terms.php



Быстрый ответ

Имя:

      
Для отправки сообщений необходимо включить JavaScript
Показать сообщения:    

Текущее время: 10-Дек 00:17

Часовой пояс: UTC + 3


Вы можете начинать темы
Вы можете отвечать на сообщения
Вы не можете редактировать свои сообщения
Вы не можете удалять свои сообщения
Вы не можете голосовать в опросах
Вы не можете прикреплять файлы к сообщениям
Вы можете скачивать файлы