(Classical) Johann Sebastian Bach - The 6 Brandenburg Concerti / Brandenburgische Konzerte & 3 Violin Concerti {Susanne Lautenbacher, Dieter Vorholz, Gunter Kehr, Mainz Chamber Orchestra} (3CD) - 1991, FLAC (tracks+.cue), lossless


Статистика раздачи [Обновить пиров]
Размер:  813 MB   |    Зарегистрирован:  1 год 1 месяц   |    Скачан:  0 раз

Полного источника не было: Никогда

Личеров:  1  [  0 KB/s  ]   Подробная статистика пиров
 
   
 
 
 

[Цитировать]

Susanne Lautenbacher, Dieter Vorholz, Gunter Kehr, Mainz Chamber Orchestra - Johann Sebastian Bach: The 6 Brandenburg Concerti & 3 Violin Concerti
Жанр: Classical
Страна-производитель диска: США
Год издания диска: 1991
Издатель (лейбл): VoxBox
Номер по каталогу: CD3X 3008
Аудиокодек: FLAC
Тип рипа: tracks+.cue
Битрейт аудио: lossless
Продолжительность: 2:40:51
Источник (релизер): irredentia (what)
Наличие сканов в содержимом раздачи: нет
Исполнители:
Mainz Chamber Orchestra
Gunter Kehr - conductor
Susanne Lautenbacher (CD3), Dieter Vorholz (CD3#1) - violins
Recorded in 1958.
Johann Sebastian Bach (1685-1750)

CD1 {48:11}

Brandenburg Concerto No.1 in F major
01. 1. Allegro (4:29)
02. 2. Adagio (4:22)
03. 3. Allegro (5:09)
04. 4. Menuetto (3:57)
05. 5. Polacca (4:18)
Brandenburg Concerto No.2 in F major
06. 1. Allegro (5:20)
07. 2. Andante (3:48)
08. 3. Allegro assai (3:12)
Brandenburg Concerto No.3 in G major
09. 1. Allegro (6:34)
10. 2. Adagio (1:50)
11. 3. Allegro (0:12)

Лог создания рипа

Exact Audio Copy V0.99 prebeta 4 from 23. January 2008
EAC extraction logfile from 20. March 2010, 17:38
Bach / Brandenburg & Violin Concerti, Disc 1
Used drive : TSSTcorpCD/DVDW SH-W162Z Adapter: 0 ID: 0
Read mode : SecureUtilize accurate stream : YesDefeat audio cache : YesMake use of C2 pointers : No
Read offset correction : 6Overread into Lead-In and Lead-Out : NoFill up missing offset samples with silence : YesDelete leading and trailing silent blocks : NoNull samples used in CRC calculations : YesUsed interface : Native Win32 interface for Win NT & 2000Gap handling : Appended to previous track
Used output format : User Defined EncoderSelected bitrate : 224 kBit/sQuality : HighAdd ID3 tag : NoCommand line compressor : C:\Program Files\Exact Audio Copy\Flac\flac.exeAdditional command line options : -V -8 -T "artist=%a" -T "title=%t" -T "album=%g" -T "date=%y" -T "tracknumber=%n" -T "genre=%m" %s
TOC of the extracted CD
Track | Start | Length | Start sector | End sector --------------------------------------------------------- 1 | 0:00.00 | 4:29.03 | 0 | 20177 2 | 4:29.03 | 4:22.20 | 20178 | 39847 3 | 8:51.23 | 5:09.05 | 39848 | 63027 4 | 14:00.28 | 3:56.57 | 63028 | 80784 5 | 17:57.10 | 4:18.10 | 80785 | 100144 6 | 22:15.20 | 5:19.53 | 100145 | 124122 7 | 27:34.73 | 3:47.72 | 124123 | 141219 8 | 31:22.70 | 3:12.28 | 141220 | 155647 9 | 34:35.23 | 6:33.65 | 155648 | 185187 10 | 41:09.13 | 1:50.12 | 185188 | 193449 11 | 42:59.25 | 5:11.63 | 193450 | 216837
Track 1
Filename I:\!eac\bach - brandenburg concerti flac\1\Bach - Brandenburg & Violin Concerti, Disc 1 - 01 - Concerto #1 in F, Allegro.wav
Pre-gap length 0:00:02.00
Peak level 65.3 % Track quality 100.0 % Test CRC D0141DEB Copy CRC D0141DEB Track not present in AccurateRip database Copy OK
Track 2
Filename I:\!eac\bach - brandenburg concerti flac\1\Bach - Brandenburg & Violin Concerti, Disc 1 - 02 - Concerto #1 in F, Adagio.wav
Pre-gap length 0:00:02.68
Peak level 36.6 % Track quality 100.0 % Test CRC 9BBD229F Copy CRC 9BBD229F Track not present in AccurateRip database Copy OK
Track 3
Filename I:\!eac\bach - brandenburg concerti flac\1\Bach - Brandenburg & Violin Concerti, Disc 1 - 03 - Concerto #1 in F, Allegro.wav
Peak level 79.4 % Track quality 100.0 % Test CRC 1BA452E1 Copy CRC 1BA452E1 Track not present in AccurateRip database Copy OK
Track 4
Filename I:\!eac\bach - brandenburg concerti flac\1\Bach - Brandenburg & Violin Concerti, Disc 1 - 04 - Concerto #1 in F, Menuetto.wav
Pre-gap length 0:00:01.73
Peak level 54.7 % Track quality 99.9 % Test CRC F5A2D85A Copy CRC F5A2D85A Track not present in AccurateRip database Copy OK
Track 5
Filename I:\!eac\bach - brandenburg concerti flac\1\Bach - Brandenburg & Violin Concerti, Disc 1 - 05 - Concerto #1 in F, Polacca.wav
Peak level 63.7 % Track quality 100.0 % Test CRC 346E31DD Copy CRC 346E31DD Track not present in AccurateRip database Copy OK
Track 6
Filename I:\!eac\bach - brandenburg concerti flac\1\Bach - Brandenburg & Violin Concerti, Disc 1 - 06 - Concerto #2 in F, Allegro.wav
Pre-gap length 0:00:08.65
Peak level 67.8 % Track quality 100.0 % Test CRC D3574A0B Copy CRC D3574A0B Track not present in AccurateRip database Copy OK
Track 7
Filename I:\!eac\bach - brandenburg concerti flac\1\Bach - Brandenburg & Violin Concerti, Disc 1 - 07 - Concerto #2 in F, Andante.wav
Peak level 28.3 % Track quality 100.0 % Test CRC 1CDEDBF0 Copy CRC 1CDEDBF0 Track not present in AccurateRip database Copy OK
Track 8
Filename I:\!eac\bach - brandenburg concerti flac\1\Bach - Brandenburg & Violin Concerti, Disc 1 - 08 - Concerto #2 in F, Allegro assai.wav
Peak level 50.2 % Track quality 100.0 % Test CRC 3861DE10 Copy CRC 3861DE10 Track not present in AccurateRip database Copy OK
Track 9
Filename I:\!eac\bach - brandenburg concerti flac\1\Bach - Brandenburg & Violin Concerti, Disc 1 - 09 - Concerto #3 in G, Allegro.wav
Pre-gap length 0:00:07.63
Peak level 49.7 % Track quality 100.0 % Test CRC B0CA150E Copy CRC B0CA150E Track not present in AccurateRip database Copy OK
Track 10
Filename I:\!eac\bach - brandenburg concerti flac\1\Bach - Brandenburg & Violin Concerti, Disc 1 - 10 - Concerto #3 in G, Adagio.wav
Peak level 14.6 % Track quality 100.0 % Test CRC 8CF4AD6B Copy CRC 8CF4AD6B Track not present in AccurateRip database Copy OK
Track 11
Filename I:\!eac\bach - brandenburg concerti flac\1\Bach - Brandenburg & Violin Concerti, Disc 1 - 11 - Concerto #3 in G, Allegro.wav
Peak level 55.1 % Track quality 99.9 % Test CRC 12D070C8 Copy CRC 12D070C8 Track not present in AccurateRip database Copy OK
None of the tracks are present in the AccurateRip database
No errors occurred
End of status report

Содержание индексной карты (.CUE)

REM GENRE ClassicalREM DATE 1991REM DISCID 990B4B0BREM COMMENT "ExactAudioCopy v0.99pb4"PERFORMER "Susanne Lautenbacher, Dieter Vorholz, Gunter Kehr"TITLE "J.S.Bach: The 6 Brandenburg Concerti & 3 Violin Concerti CD1"FILE "01 - Brandenburg Concerto No.1 in F major- 1. Allegro.wav" WAVE TRACK 01 AUDIO TITLE "Brandenburg Concerto No.1 in F major: 1. Allegro" PERFORMER "Susanne Lautenbacher, Dieter Vorholz, Gunter Kehr" INDEX 01 00:00:00 TRACK 02 AUDIO TITLE "Brandenburg Concerto No.1 in F major: 2. Adagio" PERFORMER "Susanne Lautenbacher, Dieter Vorholz, Gunter Kehr" INDEX 00 04:26:10FILE "02 - Brandenburg Concerto No.1 in F major- 2. Adagio.wav" WAVE INDEX 01 00:00:00FILE "03 - Brandenburg Concerto No.1 in F major- 3. Allegro.wav" WAVE TRACK 03 AUDIO TITLE "Brandenburg Concerto No.1 in F major: 3. Allegro" PERFORMER "Susanne Lautenbacher, Dieter Vorholz, Gunter Kehr" INDEX 01 00:00:00 TRACK 04 AUDIO TITLE "Brandenburg Concerto No.1 in F major: 4. Menuetto" PERFORMER "Susanne Lautenbacher, Dieter Vorholz, Gunter Kehr" INDEX 00 05:07:07FILE "04 - Brandenburg Concerto No.1 in F major- 4. Menuetto.wav" WAVE INDEX 01 00:00:00FILE "05 - Brandenburg Concerto No.1 in F major- 5. Polacca.wav" WAVE TRACK 05 AUDIO TITLE "Brandenburg Concerto No.1 in F major: 5. Polacca" PERFORMER "Susanne Lautenbacher, Dieter Vorholz, Gunter Kehr" INDEX 01 00:00:00 TRACK 06 AUDIO TITLE "Brandenburg Concerto No.2 in F major: 1. Allegro" PERFORMER "Susanne Lautenbacher, Dieter Vorholz, Gunter Kehr" INDEX 00 04:09:20FILE "06 - Brandenburg Concerto No.2 in F major- 1. Allegro.wav" WAVE INDEX 01 00:00:00FILE "07 - Brandenburg Concerto No.2 in F major- 2. Andante.wav" WAVE TRACK 07 AUDIO TITLE "Brandenburg Concerto No.2 in F major: 2. Andante" PERFORMER "Susanne Lautenbacher, Dieter Vorholz, Gunter Kehr" INDEX 01 00:00:00FILE "08 - Brandenburg Concerto No.2 in F major- 3. Allegro assai.wav" WAVE TRACK 08 AUDIO TITLE "Brandenburg Concerto No.2 in F major: 3. Allegro assai" PERFORMER "Susanne Lautenbacher, Dieter Vorholz, Gunter Kehr" INDEX 01 00:00:00 TRACK 09 AUDIO TITLE "Brandenburg Concerto No.3 in G major: 1. Allegro" PERFORMER "Susanne Lautenbacher, Dieter Vorholz, Gunter Kehr" INDEX 00 03:04:40FILE "09 - Brandenburg Concerto No.3 in G major- 1. Allegro.wav" WAVE INDEX 01 00:00:00FILE "10 - Brandenburg Concerto No.3 in G major- 2. Adagio.wav" WAVE TRACK 10 AUDIO TITLE "Brandenburg Concerto No.3 in G major: 2. Adagio" PERFORMER "Susanne Lautenbacher, Dieter Vorholz, Gunter Kehr" INDEX 01 00:00:00FILE "11 - Brandenburg Concerto No.3 in G major- 3. Allegro.wav" WAVE TRACK 11 AUDIO TITLE "Brandenburg Concerto No.3 in G major: 3. Allegro" PERFORMER "Susanne Lautenbacher, Dieter Vorholz, Gunter Kehr" INDEX 01 00:00:00

CD2 {58:25}

Brandenburg Concerto No.4 in G major
01. 1. Allegro (7:42)
02. 2. Andante (3:52)
03. 3. Presto (5:43)
Brandenburg Concerto No.5 in D major
04. 1. Allegro (10:48)
05. 2. Affettuoso (5:35)
06. 3. Allegro (5:54)
Brandenburg Concerto No.6 in B-flat major
07. 1. Allegro (6:54)
08. 2. Adagio ma non tanto (6:10)
09. 3. Allegro (5:47)

Лог создания рипа

Exact Audio Copy V0.99 prebeta 4 from 23. January 2008
EAC extraction logfile from 20. March 2010, 18:23
Bach / Brandenburg & Violin Concerti, Disc 2
Used drive : TSSTcorpCD/DVDW SH-W162Z Adapter: 0 ID: 0
Read mode : SecureUtilize accurate stream : YesDefeat audio cache : YesMake use of C2 pointers : No
Read offset correction : 6Overread into Lead-In and Lead-Out : NoFill up missing offset samples with silence : YesDelete leading and trailing silent blocks : NoNull samples used in CRC calculations : YesUsed interface : Native Win32 interface for Win NT & 2000Gap handling : Appended to previous track
Used output format : User Defined EncoderSelected bitrate : 224 kBit/sQuality : HighAdd ID3 tag : NoCommand line compressor : C:\Program Files\Exact Audio Copy\Flac\flac.exeAdditional command line options : -V -8 -T "artist=%a" -T "title=%t" -T "album=%g" -T "date=%y" -T "tracknumber=%n" -T "genre=%m" %s
TOC of the extracted CD
Track | Start | Length | Start sector | End sector --------------------------------------------------------- 1 | 0:00.00 | 7:41.73 | 0 | 34647 2 | 7:41.73 | 3:51.72 | 34648 | 52044 3 | 11:33.70 | 5:43.20 | 52045 | 77789 4 | 17:17.15 | 10:48.10 | 77790 | 126399 5 | 28:05.25 | 5:34.48 | 126400 | 151497 6 | 33:39.73 | 5:54.15 | 151498 | 178062 7 | 39:34.13 | 6:53.67 | 178063 | 209104 8 | 46:28.05 | 6:09.45 | 209105 | 236824 9 | 52:37.50 | 5:46.58 | 236825 | 262832
Track 1
Filename I:\!eac\bach - brandenburg concerti flac\2\Bach - Brandenburg & Violin Concerti, Disc 2 - 01 - Concerto #4 in G, Allegro.wav
Pre-gap length 0:00:02.00
Peak level 45.7 % Track quality 100.0 % Test CRC 26C11350 Copy CRC 26C11350 Track not present in AccurateRip database Copy OK
Track 2
Filename I:\!eac\bach - brandenburg concerti flac\2\Bach - Brandenburg & Violin Concerti, Disc 2 - 02 - Concerto #4 in G, Andante.wav
Pre-gap length 0:00:00.05
Peak level 43.9 % Track quality 100.0 % Test CRC CBC67299 Copy CRC CBC67299 Track not present in AccurateRip database Copy OK
Track 3
Filename I:\!eac\bach - brandenburg concerti flac\2\Bach - Brandenburg & Violin Concerti, Disc 2 - 03 - Concerto #4 in G, Presto.wav
Pre-gap length 0:00:00.02
Peak level 57.6 % Track quality 100.0 % Test CRC 58DFF00C Copy CRC 58DFF00C Track not present in AccurateRip database Copy OK
Track 4
Filename I:\!eac\bach - brandenburg concerti flac\2\Bach - Brandenburg & Violin Concerti, Disc 2 - 04 - Concerto #5 in D, Allegro.wav
Pre-gap length 0:00:06.67
Peak level 62.4 % Track quality 100.0 % Test CRC A54316D4 Copy CRC A54316D4 Track not present in AccurateRip database Copy OK
Track 5
Filename I:\!eac\bach - brandenburg concerti flac\2\Bach - Brandenburg & Violin Concerti, Disc 2 - 05 - Concerto #5 in D, Affettuoso.wav
Pre-gap length 0:00:02.15
Peak level 35.3 % Track quality 100.0 % Test CRC 39FF5B02 Copy CRC 39FF5B02 Track not present in AccurateRip database Copy OK
Track 6
Filename I:\!eac\bach - brandenburg concerti flac\2\Bach - Brandenburg & Violin Concerti, Disc 2 - 06 - Concerto #5 in D, Allegro.wav
Pre-gap length 0:00:01.53
Peak level 55.5 % Track quality 100.0 % Test CRC A92350CC Copy CRC A92350CC Track not present in AccurateRip database Copy OK
Track 7
Filename I:\!eac\bach - brandenburg concerti flac\2\Bach - Brandenburg & Violin Concerti, Disc 2 - 07 - Concerto #6 in B-flat, Allegro.wav
Pre-gap length 0:00:05.48
Peak level 50.9 % Track quality 100.0 % Test CRC 3F1B00B3 Copy CRC 3F1B00B3 Track not present in AccurateRip database Copy OK
Track 8
Filename I:\!eac\bach - brandenburg concerti flac\2\Bach - Brandenburg & Violin Concerti, Disc 2 - 08 - Concerto #6 in B-flat, Adagio ma non troppo.wav
Pre-gap length 0:00:01.47
Peak level 53.5 % Track quality 99.9 % Test CRC 32CF460D Copy CRC 32CF460D Track not present in AccurateRip database Copy OK
Track 9
Filename I:\!eac\bach - brandenburg concerti flac\2\Bach - Brandenburg & Violin Concerti, Disc 2 - 09 - Concerto #6 in B-flat, Allegro.wav
Pre-gap length 0:00:00.02
Peak level 67.5 % Track quality 100.0 % Test CRC 8DEC70D2 Copy CRC 8DEC70D2 Track not present in AccurateRip database Copy OK
None of the tracks are present in the AccurateRip database
No errors occurred
End of status report

Содержание индексной карты (.CUE)

REM GENRE ClassicalREM DATE 1991REM DISCID 810DB009REM COMMENT "ExactAudioCopy v0.99pb4"PERFORMER "Susanne Lautenbacher, Dieter Vorholz, Gunter Kehr"TITLE "J.S.Bach: The 6 Brandenburg Concerti & 3 Violin Concerti CD2"FILE "01 - Brandenburg Concerto No.4 in G major- 1. Allegro.wav" WAVE TRACK 01 AUDIO TITLE "Brandenburg Concerto No.4 in G major: 1. Allegro" PERFORMER "Susanne Lautenbacher, Dieter Vorholz, Gunter Kehr" INDEX 01 00:00:00 TRACK 02 AUDIO TITLE "Brandenburg Concerto No.4 in G major: 2. Andante" PERFORMER "Susanne Lautenbacher, Dieter Vorholz, Gunter Kehr" INDEX 00 07:41:68FILE "02 - Brandenburg Concerto No.4 in G major- 2. Andante.wav" WAVE INDEX 01 00:00:00 TRACK 03 AUDIO TITLE "Brandenburg Concerto No.4 in G major: 3. Presto" PERFORMER "Susanne Lautenbacher, Dieter Vorholz, Gunter Kehr" INDEX 00 03:51:70FILE "03 - Brandenburg Concerto No.4 in G major- 3. Presto.wav" WAVE INDEX 01 00:00:00 TRACK 04 AUDIO TITLE "Brandenburg Concerto No.5 in D major: 1. Allegro" PERFORMER "Susanne Lautenbacher, Dieter Vorholz, Gunter Kehr" INDEX 00 05:36:28FILE "04 - Brandenburg Concerto No.5 in D major- 1. Allegro.wav" WAVE INDEX 01 00:00:00 TRACK 05 AUDIO TITLE "Brandenburg Concerto No.5 in D major: 2. Affettuoso" PERFORMER "Susanne Lautenbacher, Dieter Vorholz, Gunter Kehr" INDEX 00 10:45:70FILE "05 - Brandenburg Concerto No.5 in D major- 2. Affettuoso.wav" WAVE INDEX 01 00:00:00 TRACK 06 AUDIO TITLE "Brandenburg Concerto No.5 in D major: 3. Allegro" PERFORMER "Susanne Lautenbacher, Dieter Vorholz, Gunter Kehr" INDEX 00 05:32:70FILE "06 - Brandenburg Concerto No.5 in D major- 3. Allegro.wav" WAVE INDEX 01 00:00:00 TRACK 07 AUDIO TITLE "Brandenburg Concerto No.6 in B-flat major: 1. Allegro" PERFORMER "Susanne Lautenbacher, Dieter Vorholz, Gunter Kehr" INDEX 00 05:48:42FILE "07 - Brandenburg Concerto No.6 in B-flat major- 1. Allegro.wav" WAVE INDEX 01 00:00:00 TRACK 08 AUDIO TITLE "Brandenburg Concerto No.6 in B-flat major: 2. Adagio ma non tanto" PERFORMER "Susanne Lautenbacher, Dieter Vorholz, Gunter Kehr" INDEX 00 06:52:20FILE "08 - Brandenburg Concerto No.6 in B-flat major- 2. Adagio ma non tanto.wav" WAVE INDEX 01 00:00:00 TRACK 09 AUDIO TITLE "Brandenburg Concerto No.6 in B-flat major: 3. Allegro" PERFORMER "Susanne Lautenbacher, Dieter Vorholz, Gunter Kehr" INDEX 00 06:09:43FILE "09 - Brandenburg Concerto No.6 in B-flat major- 3. Allegro.wav" WAVE INDEX 01 00:00:00

CD3 {54:15}

01. Concerto in D minor for 2 violins "Double", BWV 1043 (18:20)
02. Violin Concerto No.2 in E major, BWV 1042 (20:11)
03. Violin Concerto No.1 in A minor, BWV 1041 (15:44)

Лог создания рипа

Exact Audio Copy V0.99 prebeta 4 from 23. January 2008
EAC extraction logfile from 20. March 2010, 18:40
JS Bach / 3 Violin Concerti
Used drive : TSSTcorpCD/DVDW SH-W162Z Adapter: 0 ID: 0
Read mode : SecureUtilize accurate stream : YesDefeat audio cache : YesMake use of C2 pointers : No
Read offset correction : 6Overread into Lead-In and Lead-Out : NoFill up missing offset samples with silence : YesDelete leading and trailing silent blocks : NoNull samples used in CRC calculations : YesUsed interface : Native Win32 interface for Win NT & 2000Gap handling : Appended to previous track
Used output format : User Defined EncoderSelected bitrate : 224 kBit/sQuality : HighAdd ID3 tag : NoCommand line compressor : C:\Program Files\Exact Audio Copy\Flac\flac.exeAdditional command line options : -V -8 -T "artist=%a" -T "title=%t" -T "album=%g" -T "date=%y" -T "tracknumber=%n" -T "genre=%m" %s
TOC of the extracted CD
Track | Start | Length | Start sector | End sector --------------------------------------------------------- 1 | 0:00.00 | 18:20.13 | 0 | 82512 2 | 18:20.13 | 20:11.00 | 82513 | 173337 3 | 38:31.13 | 15:44.12 | 173338 | 244149
Track 1
Filename I:\!eac\bach - brandenburg concerti flac\3\JS Bach - 3 Violin Concerti - 01 - Concerto in D Minor for 2 Violins, BWV 1043.wav
Pre-gap length 0:00:02.00
Peak level 76.0 % Track quality 100.0 % Test CRC 9B470D05 Copy CRC 9B470D05 Track not present in AccurateRip database Copy OK
Track 2
Filename I:\!eac\bach - brandenburg concerti flac\3\JS Bach - 3 Violin Concerti - 02 - Violin Concerto in E Major, BWV 1042.wav
Pre-gap length 0:00:06.05
Peak level 71.0 % Track quality 100.0 % Test CRC F4069390 Copy CRC F4069390 Track not present in AccurateRip database Copy OK
Track 3
Filename I:\!eac\bach - brandenburg concerti flac\3\JS Bach - 3 Violin Concerti - 03 - Violin Concerto in A Minor, BWV 1041.wav
Pre-gap length 0:00:06.08
Peak level 62.5 % Track quality 100.0 % Test CRC C0E4DC4D Copy CRC C0E4DC4D Track not present in AccurateRip database Copy OK
None of the tracks are present in the AccurateRip database
No errors occurred
End of status report

Содержание индексной карты (.CUE)

REM GENRE ClassicalREM DATE 1991REM DISCID 0F0CB703REM COMMENT "ExactAudioCopy v0.99pb4"PERFORMER "Susanne Lautenbacher, Dieter Vorholz, Gunter Kehr"TITLE "J.S.Bach: The 6 Brandenburg Concerti & 3 Violin Concerti CD3"FILE "01 - Concerto in D minor for 2 violins 'Double', BWV 1043.wav" WAVE TRACK 01 AUDIO TITLE "Concerto in D minor for 2 violins 'Double', BWV 1043" PERFORMER "Susanne Lautenbacher, Dieter Vorholz, Gunter Kehr" INDEX 01 00:00:00 TRACK 02 AUDIO TITLE "Violin Concerto No.2 in E major, BWV 1042" PERFORMER "Susanne Lautenbacher, Dieter Vorholz, Gunter Kehr" INDEX 00 18:14:08FILE "02 - Violin Concerto No.2 in E major, BWV 1042.wav" WAVE INDEX 01 00:00:00 TRACK 03 AUDIO TITLE "Violin Concerto No.1 in A minor, BWV 1041" PERFORMER "Susanne Lautenbacher, Dieter Vorholz, Gunter Kehr" INDEX 00 20:04:67FILE "03 - Violin Concerto No.1 in A minor, BWV 1041.wav" WAVE INDEX 01 00:00:00
[teatrix.ru].t9879.torrent 
Торрент: Зарегистрирован [ 2015-10-25 20:37 ] · 11523CE1BCEE95944E016021E46E47CF6D613156

Скачать .torrent

Скачать

20 KB

Статус: проверено
Скачан: 0 раз
Размер: 813 MB
terms.php



Быстрый ответ

Имя:

      
Для отправки сообщений необходимо включить JavaScript
Показать сообщения:    

Текущее время: 08-Дек 11:01

Часовой пояс: UTC + 3


Вы можете начинать темы
Вы можете отвечать на сообщения
Вы не можете редактировать свои сообщения
Вы не можете удалять свои сообщения
Вы не можете голосовать в опросах
Вы не можете прикреплять файлы к сообщениям
Вы можете скачивать файлы