(Classical) Vivaldi - The Four Seasons / Le quattro stagioni {Susanne Lautenbacher, Wurttemberg Chamber Orchestra, Jorg Faerber} - 1990, FLAC (tracks+.cue), lossless


Статистика раздачи [Обновить пиров]
Размер:  213 MB   |    Зарегистрирован:  1 год 1 месяц   |    Скачан:  0 раз

Полного источника не было: Никогда

Личеров:  1  [  0 KB/s  ]   Подробная статистика пиров
 
   
 
 
 

[Цитировать]

Susanne Lautenbacher & Jorg Faerber - Vivaldi: The Four Seasons
Жанр: Classical
Страна-производитель диска: Германия
Год издания диска: 1990
Издатель (лейбл): Marshall Cavendish Ltd
Номер по каталогу: Grosse Komponisten Und Ihre Musik #25
Аудиокодек: FLAC
Тип рипа: tracks+.cue
Битрейт аудио: lossless
Продолжительность: 41:57
Источник (релизер): louph (what)
Наличие сканов в содержимом раздачи: нет
Треклист:
Antonio Vivaldi (1678-1741)
Spring (Concerto No.1 in E major)
01. 1. Allegro (3:35)
02. 2. Largo (2:49)
03. 3. Allegro (Pastoral dance) (4:06)
Summer (Concerto No.2 in G minor)
04. 1. Allegro non molto-Allegro (6:00)
05. 2. Adagio-Presto-Adagio (2:11)
06. 3. Presto (Summer gales) (3:00)
Autumn (Concerto No.3 in F major)
07. 1. Allegro (Rustic dance and song) (5:03)
08. 2. Adagio molto (Sleeping drunkards) (2:25)
09. 3. Allegro (The chase) (3:20)
Winter (Concerto No.4 in F minor)
10. 1. Allegro non molto (3:34)
11. 2. Largo (2:22)
12. 3. Allegro (3:32)
Исполнители:
Susanne Lautenbacher - violin
Wurttemberg Chamber Orchestra
Jorg Faerber - conductor

Лог создания рипа

Exact Audio Copy V1.0 beta 2 from 29. April 2011
EAC extraction logfile from 7. September 2011, 21:21
Vivaldi / The Four Seasons
Used drive : HL-DT-STDVDRAM GH60N Adapter: 0 ID: 1
Read mode : SecureUtilize accurate stream : YesDefeat audio cache : YesMake use of C2 pointers : No
Read offset correction : 667Overread into Lead-In and Lead-Out : NoFill up missing offset samples with silence : YesDelete leading and trailing silent blocks : NoNull samples used in CRC calculations : YesUsed interface : Native Win32 interface for Win NT & 2000Gap handling : Appended to previous track
Used output format : User Defined EncoderSelected bitrate : 1024 kBit/sQuality : HighAdd ID3 tag : NoCommand line compressor : C:\Program Files (x86)\Exact Audio Copy\Flac\flac.exeAdditional command line options : -8 -V -T "ARTIST=%artist%" -T "TITLE=%title%" -T "ALBUM=%albumtitle%" -T "DATE=%year%" -T "TRACKNUMBER=%tracknr%" -T "GENRE=%genre%" -T "PERFORMER=%albuminterpret%" -T "COMPOSER=%composer%" %haslyrics%--tag-from-file=LYRICS
TOC of the extracted CD
Track | Start | Length | Start sector | End sector --------------------------------------------------------- 1 | 0:00.00 | 3:35.20 | 0 | 16144 2 | 3:35.20 | 2:49.00 | 16145 | 28819 3 | 6:24.20 | 4:06.22 | 28820 | 47291 4 | 10:30.42 | 5:59.65 | 47292 | 74281 5 | 16:30.32 | 2:11.28 | 74282 | 84134 6 | 18:41.60 | 3:00.07 | 84135 | 97641 7 | 21:41.67 | 5:03.35 | 97642 | 120401 8 | 26:45.27 | 2:24.60 | 120402 | 131261 9 | 29:10.12 | 3:19.43 | 131262 | 146229 10 | 32:29.55 | 3:34.15 | 146230 | 162294 11 | 36:03.70 | 2:22.30 | 162295 | 172974 12 | 38:26.25 | 3:31.50 | 172975 | 188849
Track 1
Filename D:\Torrents\What.cd\_Uploaded\Vivaldi - The Four Seasons [FLAC]\01 - Spring (Concerto No 1 in E) - 1st- Allegro.wav
Pre-gap length 0:00:02.00
Peak level 91.3 % Extraction speed 1.0 X Track quality 100.0 % Test CRC 290B5F8A Copy CRC 290B5F8A Accurately ripped (confidence 4) [18366382] (AR v1) Copy OK
Track 2
Filename D:\Torrents\What.cd\_Uploaded\Vivaldi - The Four Seasons [FLAC]\02 - Spring (Concerto No 1 in E) - 2nd- Largo.wav
Peak level 31.3 % Extraction speed 0.9 X Track quality 99.9 % Test CRC 0754A5D9 Copy CRC 0754A5D9 Accurately ripped (confidence 4) [09881409] (AR v1) Copy OK
Track 3
Filename D:\Torrents\What.cd\_Uploaded\Vivaldi - The Four Seasons [FLAC]\03 - Spring (Concerto No 1 in E) - 3rd- Allegro (Danza pastorale).wav
Peak level 97.1 % Extraction speed 1.1 X Track quality 99.9 % Test CRC 7EC810F1 Copy CRC 7EC810F1 Accurately ripped (confidence 4) [3C265416] (AR v1) Copy OK
Track 4
Filename D:\Torrents\What.cd\_Uploaded\Vivaldi - The Four Seasons [FLAC]\04 - Summer (Concerto No 2 in G Minor) - 1st- Allegro non molto.wav
Pre-gap length 0:00:02.00
Peak level 95.7 % Extraction speed 1.3 X Track quality 99.9 % Test CRC 028E37CB Copy CRC 028E37CB Accurately ripped (confidence 4) [4C5D02A8] (AR v1) Copy OK
Track 5
Filename D:\Torrents\What.cd\_Uploaded\Vivaldi - The Four Seasons [FLAC]\05 - Summer (Concerto No 2 in G Minor) - 2nd- Adagio-Presto-Adagio.wav
Peak level 72.2 % Extraction speed 1.3 X Track quality 100.0 % Test CRC 83788647 Copy CRC 83788647 Accurately ripped (confidence 4) [67546E2D] (AR v1) Copy OK
Track 6
Filename D:\Torrents\What.cd\_Uploaded\Vivaldi - The Four Seasons [FLAC]\06 - Summer (Concerto No 2 in G Minor) - 3rd- Presto (Summer gales).wav
Peak level 99.5 % Extraction speed 1.5 X Track quality 100.0 % Test CRC DA53FF19 Copy CRC DA53FF19 Accurately ripped (confidence 4) [F2C69C2A] (AR v1) Copy OK
Track 7
Filename D:\Torrents\What.cd\_Uploaded\Vivaldi - The Four Seasons [FLAC]\07 - Autumn (Concerto No 3 in F) - 1st- Allegro (Rustic dance & song).wav
Pre-gap length 0:00:02.00
Peak level 69.1 % Extraction speed 1.5 X Track quality 99.9 % Test CRC C98605CA Copy CRC C98605CA Accurately ripped (confidence 4) [0C0769D5] (AR v1) Copy OK
Track 8
Filename D:\Torrents\What.cd\_Uploaded\Vivaldi - The Four Seasons [FLAC]\08 - Autumn (Concerto No 3 in F) - 2nd- Adagio molto (Sleeping drunkards).wav
Peak level 14.8 % Extraction speed 1.6 X Track quality 100.0 % Test CRC 2327BEFE Copy CRC 2327BEFE Accurately ripped (confidence 4) [0C30DDD5] (AR v1) Copy OK
Track 9
Filename D:\Torrents\What.cd\_Uploaded\Vivaldi - The Four Seasons [FLAC]\09 - Autumn (Concerto No 3 in F) - 3rd- Allegro (The chase).wav
Peak level 72.9 % Extraction speed 1.7 X Track quality 100.0 % Test CRC C9689360 Copy CRC C9689360 Accurately ripped (confidence 4) [92A03586] (AR v1) Copy OK
Track 10
Filename D:\Torrents\What.cd\_Uploaded\Vivaldi - The Four Seasons [FLAC]\10 - Winter (Concerto No 4 in F Minor) - 1st- Allegro non molto.wav
Pre-gap length 0:00:02.00
Peak level 80.5 % Extraction speed 1.8 X Track quality 100.0 % Test CRC 4F630ABC Copy CRC 4F630ABC Accurately ripped (confidence 4) [3F987B96] (AR v1) Copy OK
Track 11
Filename D:\Torrents\What.cd\_Uploaded\Vivaldi - The Four Seasons [FLAC]\11 - Winter (Concerto No 4 in F Minor) - 2nd- Largo.wav
Peak level 37.0 % Extraction speed 1.4 X Track quality 99.9 % Test CRC 6547F8E2 Copy CRC 6547F8E2 Accurately ripped (confidence 4) [1D6A7BAD] (AR v1) Copy OK
Track 12
Filename D:\Torrents\What.cd\_Uploaded\Vivaldi - The Four Seasons [FLAC]\12 - Winter (Concerto No 4 in F Minor) - 3rd- Allegro.wav
Peak level 83.0 % Extraction speed 1.9 X Track quality 100.0 % Test CRC A4F1EAC4 Copy CRC A4F1EAC4 Accurately ripped (confidence 4) [F61685DA] (AR v1) Copy OK
All tracks accurately ripped
No errors occurred
End of status report
==== Log checksum B2BD7D4D2FF26077DCF2174E269EDD09E60493D1136205602DB8E6C6A9951B3F ====

Содержание индексной карты (.CUE)

REM GENRE ClassicalREM DATE 1990REM DISCID 9209D60CREM COMMENT "ExactAudioCopy v1.0b2"PERFORMER "Susanne Lautenbacher & Jorg Faerber"TITLE "Vivaldi: The Four Seasons"FILE "01 - Spring (Concerto No.1 in E major)- 1. Allegro.wav" WAVE TRACK 01 AUDIO TITLE "Spring (Concerto No.1 in E major): 1. Allegro" PERFORMER "Susanne Lautenbacher & Jorg Faerber" INDEX 01 00:00:00FILE "02 - Spring (Concerto No.1 in E major)- 2. Largo.wav" WAVE TRACK 02 AUDIO TITLE "Spring (Concerto No.1 in E major): 2. Largo" PERFORMER "Susanne Lautenbacher & Jorg Faerber" INDEX 01 00:00:00FILE "03 - Spring (Concerto No.1 in E major)- 3. Allegro (Pastoral dance).wav" WAVE TRACK 03 AUDIO TITLE "Spring (Concerto No.1 in E major): 3. Allegro (Pastoral dance)" PERFORMER "Susanne Lautenbacher & Jorg Faerber" INDEX 01 00:00:00 TRACK 04 AUDIO TITLE "Summer (Concerto No.2 in G minor): 1. Allegro non molto-Allegro" PERFORMER "Susanne Lautenbacher & Jorg Faerber" INDEX 00 04:04:22FILE "04 - Summer (Concerto No.2 in G minor)- 1. Allegro non molto-Allegro.wav" WAVE INDEX 01 00:00:00FILE "05 - Summer (Concerto No.2 in G minor)- 2. Adagio-Presto-Adagio.wav" WAVE TRACK 05 AUDIO TITLE "Summer (Concerto No.2 in G minor): 2. Adagio-Presto-Adagio" PERFORMER "Susanne Lautenbacher & Jorg Faerber" INDEX 01 00:00:00FILE "06 - Summer (Concerto No.2 in G minor)- 3. Presto (Summer gales).wav" WAVE TRACK 06 AUDIO TITLE "Summer (Concerto No.2 in G minor): 3. Presto (Summer gales)" PERFORMER "Susanne Lautenbacher & Jorg Faerber" INDEX 01 00:00:00 TRACK 07 AUDIO TITLE "Autumn (Concerto No.3 in F major): 1. Allegro (Rustic dance and song)" PERFORMER "Susanne Lautenbacher & Jorg Faerber" INDEX 00 02:58:07FILE "07 - Autumn (Concerto No.3 in F major)- 1. Allegro (Rustic dance and song).wav" WAVE INDEX 01 00:00:00FILE "08 - Autumn (Concerto No.3 in F major)- 2. Adagio molto (Sleeping drunkards).wav" WAVE TRACK 08 AUDIO TITLE "Autumn (Concerto No.3 in F major): 2. Adagio molto (Sleeping drunkards)" PERFORMER "Susanne Lautenbacher & Jorg Faerber" INDEX 01 00:00:00FILE "09 - Autumn (Concerto No.3 in F major)- 3. Allegro (The chase).wav" WAVE TRACK 09 AUDIO TITLE "Autumn (Concerto No.3 in F major): 3. Allegro (The chase)" PERFORMER "Susanne Lautenbacher & Jorg Faerber" INDEX 01 00:00:00 TRACK 10 AUDIO TITLE "Winter (Concerto No.4 in F minor): 1. Allegro non molto" PERFORMER "Susanne Lautenbacher & Jorg Faerber" INDEX 00 03:17:43FILE "10 - Winter (Concerto No.4 in F minor)- 1. Allegro non molto.wav" WAVE INDEX 01 00:00:00FILE "11 - Winter (Concerto No.4 in F minor)- 2. Largo.wav" WAVE TRACK 11 AUDIO TITLE "Winter (Concerto No.4 in F minor): 2. Largo" PERFORMER "Susanne Lautenbacher & Jorg Faerber" INDEX 01 00:00:00FILE "12 - Winter (Concerto No.4 in F minor)- 3. Allegro.wav" WAVE TRACK 12 AUDIO TITLE "Winter (Concerto No.4 in F minor): 3. Allegro" PERFORMER "Susanne Lautenbacher & Jorg Faerber" INDEX 01 00:00:00

Отчет CUETools

[CUETools log; Date: 02.10.2014 22:53:23; Version: 2.1.5][CTDB TOCID: a6isf6zkV2nY_Y4gHZKR3GXXSkU-] found.Track | CTDB Status 1 | (9/9) Accurately ripped 2 | (9/9) Accurately ripped 3 | (9/9) Accurately ripped 4 | (9/9) Accurately ripped 5 | (9/9) Accurately ripped 6 | (9/9) Accurately ripped 7 | (9/9) Accurately ripped 8 | (9/9) Accurately ripped 9 | (9/9) Accurately ripped 10 | (9/9) Accurately ripped 11 | (9/9) Accurately ripped 12 | (9/9) Accurately ripped[AccurateRip ID: 0013623a-00b3e8a6-9209d60c] found.Track [ CRC | V2 ] Status 01 [18366382|e9e889d6] (4+3/7) Accurately ripped 02 [09881409|70085a7f] (4+3/7) Accurately ripped 03 [3c265416|0d0c4413] (4+3/7) Accurately ripped 04 [4c5d02a8|d84e7820] (4+3/7) Accurately ripped 05 [67546e2d|48209cee] (4+3/7) Accurately ripped 06 [f2c69c2a|a7447113] (4+3/7) Accurately ripped 07 [0c0769d5|47092ef5] (4+3/7) Accurately ripped 08 [0c30ddd5|72635129] (4+3/7) Accurately ripped 09 [92a03586|d6f7a657] (4+3/7) Accurately ripped 10 [3f987b96|f8710555] (4+3/7) Accurately ripped 11 [1d6a7bad|fd81453b] (4+3/7) Accurately ripped 12 [f61685da|f2886edd] (4+3/7) Accurately ripped
Track Peak [ CRC32 ] [W/O NULL] [ LOG ] -- 99,5 [7347F94B] [7FF6825F] 01 91,3 [290B5F8A] [FC7F7C2F] CRC32 02 31,3 [0754A5D9] [0E8933B9] CRC32 03 97,1 [7EC810F1] [9F25591E] CRC32 04 95,7 [028E37CB] [A77F9E7D] CRC32 05 72,2 [83788647] [98454728] CRC32 06 99,5 [DA53FF19] [9D64F9F5] CRC32 07 69,1 [C98605CA] [4505E724] CRC32 08 14,8 [2327BEFE] [F2FD4759] CRC32 09 72,9 [C9689360] [3DA491CA] CRC32 10 80,5 [4F630ABC] [79F7F448] CRC32 11 37,0 [6547F8E2] [220786F0] CRC32 12 83,0 [A4F1EAC4] [094130AA] CRC32
[teatrix.ru].t9880.torrent 
Торрент: Зарегистрирован [ 2015-10-25 20:37 ] · 7BCF57604A35A88F8A30C4D17EBE30B03D54D63E

Скачать .torrent

Скачать

19 KB

Статус: проверено
Скачан: 0 раз
Размер: 213 MB
terms.php



Быстрый ответ

Имя:

      
Для отправки сообщений необходимо включить JavaScript
Показать сообщения:    

Текущее время: 04-Дек 19:23

Часовой пояс: UTC + 3


Вы можете начинать темы
Вы можете отвечать на сообщения
Вы не можете редактировать свои сообщения
Вы не можете удалять свои сообщения
Вы не можете голосовать в опросах
Вы не можете прикреплять файлы к сообщениям
Вы можете скачивать файлы