(Classical) Brahms - Violin Concerto in D major, Op.77 {Susanne Lautenbacher, Innsbruck Symphony Orchestra, Robert Wagner} - 1990, FLAC (tracks+.cue), lossless


Статистика раздачи [Обновить пиров]
Размер:  179 MB   |    Зарегистрирован:  1 год 1 месяц   |    Скачан:  0 раз

Полного источника не было: Никогда

Личеров:  1  [  0 KB/s  ]   Подробная статистика пиров
 
   
 
 
 

[Цитировать]

Susanne Lautenbacher & Robert Wagner - Johannes Brahms: Violin Concerto in D major, Op.77
Жанр: Classical
Страна-производитель диска: Германия
Год издания диска: 1990
Издатель (лейбл): Marshall Cavendish Ltd
Номер по каталогу: Grosse Komponisten Und Ihre Musik #14
Аудиокодек: FLAC
Тип рипа: tracks+.cue
Битрейт аудио: lossless
Продолжительность: 39:30
Источник (релизер): louph (what)
Наличие сканов в содержимом раздачи: нет
Треклист:
01. 1st Movement: Allegro non troppo (22:15)
02. 2nd Movement: Adagio (8:57)
03. 3rd Movement: Allegro giocoso, ma non troppo vivace (8:18)
Исполнители:
Susanne Lautenbacher - violin
Innsbruck Symphony Orchestra
Robert Wagner - conductor

Лог создания рипа

Exact Audio Copy V1.0 beta 2 from 29. April 2011
EAC extraction logfile from 25. August 2011, 21:42
Brahms / Violin Concerto in D Major, Op.77
Used drive : HL-DT-STDVDRAM GH60N Adapter: 0 ID: 1
Read mode : SecureUtilize accurate stream : YesDefeat audio cache : YesMake use of C2 pointers : No
Read offset correction : 667Overread into Lead-In and Lead-Out : NoFill up missing offset samples with silence : YesDelete leading and trailing silent blocks : NoNull samples used in CRC calculations : YesUsed interface : Native Win32 interface for Win NT & 2000Gap handling : Appended to previous track
Used output format : User Defined EncoderSelected bitrate : 1024 kBit/sQuality : HighAdd ID3 tag : NoCommand line compressor : C:\Program Files (x86)\Exact Audio Copy\Flac\flac.exeAdditional command line options : -8 -V -T "ARTIST=%artist%" -T "TITLE=%title%" -T "ALBUM=%albumtitle%" -T "DATE=%year%" -T "TRACKNUMBER=%tracknr%" -T "GENRE=%genre%" -T "PERFORMER=%albuminterpret%" -T "COMPOSER=%composer%" %haslyrics%--tag-from-file=LYRICS
TOC of the extracted CD
Track | Start | Length | Start sector | End sector --------------------------------------------------------- 1 | 0:00.00 | 22:15.35 | 0 | 100159 2 | 22:15.35 | 8:57.02 | 100160 | 140436 3 | 31:12.37 | 8:17.38 | 140437 | 177749
Track 1
Filename D:\Torrents\What.cd\_Uploaded\Brahms - Violin Concerto in D Major, Op.77 [FLAC]\01 - 1st Movement - Allegro non troppo (cadenza- J Joachim).wav
Pre-gap length 0:00:02.00
Peak level 79.9 % Extraction speed 1.5 X Track quality 100.0 % Test CRC 47DDC8FD Copy CRC 47DDC8FD Accurately ripped (confidence 5) [F74AD586] (AR v1) Copy OK
Track 2
Filename D:\Torrents\What.cd\_Uploaded\Brahms - Violin Concerto in D Major, Op.77 [FLAC]\02 - 2nd Movement - Adagio.wav
Peak level 74.7 % Extraction speed 1.8 X Track quality 100.0 % Test CRC 81D4916D Copy CRC 81D4916D Accurately ripped (confidence 5) [B4A5F26E] (AR v1) Copy OK
Track 3
Filename D:\Torrents\What.cd\_Uploaded\Brahms - Violin Concerto in D Major, Op.77 [FLAC]\03 - 3rd Movement - Allegro giocoso, ma non troppo vivace - poco piu presto.wav
Peak level 70.7 % Extraction speed 2.0 X Track quality 100.0 % Test CRC 5A25E109 Copy CRC 5A25E109 Accurately ripped (confidence 5) [9FEF88AD] (AR v1) Copy OK
All tracks accurately ripped
No errors occurred
End of status report
==== Log checksum DDC39C7448C2C13D89C5D184386D30F4747B0FC1BDA87503CB86482DCC617590 ====

Содержание индексной карты (.CUE)

REM GENRE ClassicalREM DATE 1990REM DISCID 24094203REM COMMENT "ExactAudioCopy v1.0b2"PERFORMER "Susanne Lautenbacher & Robert Wagner"TITLE "Brahms: Violin Concerto in D major, Op.77"FILE "01 - 1st Movement- Allegro non troppo.wav" WAVE TRACK 01 AUDIO TITLE "1st Movement: Allegro non troppo" PERFORMER "Susanne Lautenbacher & Robert Wagner" INDEX 01 00:00:00FILE "02 - 2nd Movement- Adagio.wav" WAVE TRACK 02 AUDIO TITLE "2nd Movement: Adagio" PERFORMER "Susanne Lautenbacher & Robert Wagner" INDEX 01 00:00:00FILE "03 - 3rd Movement- Allegro giocoso, ma non troppo vivace.wav" WAVE TRACK 03 AUDIO TITLE "3rd Movement: Allegro giocoso, ma non troppo vivace" PERFORMER "Susanne Lautenbacher & Robert Wagner" INDEX 01 00:00:00

Отчет CUETools

[CUETools log; Date: 02.10.2014 22:26:37; Version: 2.1.5][CTDB TOCID: dI.xMRZ4ldAG9NIxLmHDL1O4RBg-] found.Track | CTDB Status 1 | (6/6) Accurately ripped 2 | (6/6) Accurately ripped 3 | (6/6) Accurately ripped[AccurateRip ID: 0006622b-00145598-24094203] found.Track [ CRC | V2 ] Status 01 [f74ad586|2b0bb583] (5+0/5) Accurately ripped 02 [b4a5f26e|4826f14f] (5+0/5) Accurately ripped 03 [9fef88ad|65013de3] (5+0/5) Accurately ripped
Track Peak [ CRC32 ] [W/O NULL] [ LOG ] -- 79,9 [74ADA49D] [51F20158] 01 79,9 [47DDC8FD] [61C7EE41] CRC32 02 74,7 [81D4916D] [A093CAEC] CRC32 03 70,7 [5A25E109] [892C5E19] CRC32
[teatrix.ru].t9881.torrent 
Торрент: Зарегистрирован [ 2015-10-25 20:37 ] · F51CEFDA9EF418DC99CDFA059C485ACA09EFF8BB

Скачать .torrent

Скачать

15 KB

Статус: проверено
Скачан: 0 раз
Размер: 179 MB
terms.php



Быстрый ответ

Имя:

      
Для отправки сообщений необходимо включить JavaScript
Показать сообщения:    

Текущее время: 11-Дек 01:23

Часовой пояс: UTC + 3


Вы можете начинать темы
Вы можете отвечать на сообщения
Вы не можете редактировать свои сообщения
Вы не можете удалять свои сообщения
Вы не можете голосовать в опросах
Вы не можете прикреплять файлы к сообщениям
Вы можете скачивать файлы