(Classical) The Romantic Cello Concerto – Vol. 5: Saint-Saens (Clein, Weithaas, Lynch, Keaney; Manze) - 2014, FLAC (image+.cue) lossless


Статистика раздачи [Обновить пиров]
Размер:  238 MB   |    Зарегистрирован:  1 год 1 месяц   |    Скачан:  0 раз

Полного источника не было: Никогда

Личеров:  1  [  0 KB/s  ]   Подробная статистика пиров
 
   
 
 
 

[Цитировать]

The Romantic Cello Concerto – Vol. 5: Saint-Saëns (Clein, Weithaas, Lynch, Keaney; Manze)
Жанр: Classical
Страна-производитель диска: Франция
Год издания диска: 2014
Издатель (лейбл): Hyperion
Номер по каталогу: CDA68002
Дата записи: 12 и 13 июня 2013 г., Глазго.
Аудиокодек: FLAC
Тип рипа: image+.cue
Битрейт аудио: lossless
Продолжительность: 00:59:49
Источник: odeonmusic
Наличие сканов в содержимом раздачи: да
Треклист:
Шарль-Камиль Сен-Санс (1835 — 1921).
Виолончельный концерт № 1 a-moll, op. 33 (1872).
01. Allegro non troppo. — [05:53].
02. — Allegretto con moto. — [05:02].
03. — Tempo I. — Un peu moins vite. — Più allegro (comme le premier mouvement). — [Кода] [08:53].
Виолончельный концерт № 2 d-moll, op. 119 (1902).
04. I. Allegro moderato e maestoso. — [11:27].
(05.) — Andante sostenuto — Più mosso. — Tempo I (Andante sostenuto).
05. II. Allegro non troppo. — Cadenza. — Mouvement du premier morceau. — [Кода.] Molto allegro [06:26].
«Муза и поэт», дуэт E-dur [sic!] для скрипки и виолончели с фортепиано, op. 132 (1910), оригинальная версия с оркестром, R. 208 (1910).
06. Andantino. — Poco allegro. — Animato. — [15:39].
(08.) — Molto allegro. —
(09.) — Le double plus lent. — Andante. —
(10.) — Andantino. — Allegretto. — [Кода.]
Allegro appassionato h-moll для виолончели с фортепиано, op. 43 (1873), оригинальная версия с оркестром, R. 119 (1876).
07. Allegro [03:57].
«Карнавал животных», большая зоологическая фантазия (1886).
08. № 13. Лебедь (для виолончели и двух фортепиано). Andantino grazioso [02:31].
Исполнители:
Antje Weithaas (скрипка, 6),
Natalie Clein (виолончель).
Julia Lynch (фортепиано, 8),
Judith Keaney (фортепиано, 8).
BBC Scottish Symphony Orchestra.
Дирижер Andrew Manze.

Лог создания рипа

Exact Audio Copy V1.0 beta 3 from 29. August 2011
EAC extraction logfile from 3. September 2014, 13:41
Natalie Clein / Saint-Saëns - Cello Concertos - Natalie Clein (Romantic Cello Concerto -5)
Used drive : TSSTcorpCDDVDW SH-222BB Adapter: 2 ID: 1
Read mode : SecureUtilize accurate stream : YesDefeat audio cache : YesMake use of C2 pointers : No
Read offset correction : 6Overread into Lead-In and Lead-Out : NoFill up missing offset samples with silence : YesDelete leading and trailing silent blocks : NoNull samples used in CRC calculations : YesUsed interface : Native Win32 interface for Win NT & 2000
Used output format : User Defined EncoderSelected bitrate : 896 kBit/sQuality : HighAdd ID3 tag : NoCommand line compressor : C:\Program Files\Exact Audio Copy\FLAC\FLAC.EXEAdditional command line options : -8 -V -T "TITLE=%title%" -T "ARTIST=%artist%" -T "ALBUMARTIST=%albumartist%" -T "ALBUM=%albumtitle%" -T "DATE=%year%" -T "TRACKNUMBER=%tracknr%" -T "TRACKTOTAL=%numtracks%" -T "GENRE=%genre%" -T "COMMENT=%comment%" -T "PERFORMER=%albuminterpret%" -T "COMPOSER=%composer%" %source% -o %dest%
TOC of the extracted CD
Track | Start | Length | Start sector | End sector --------------------------------------------------------- 1 | 0:00.00 | 5:52.44 | 0 | 26443 2 | 5:52.44 | 5:01.43 | 26444 | 49061 3 | 10:54.12 | 8:53.05 | 49062 | 89041 4 | 19:47.17 | 11:27.08 | 89042 | 140574 5 | 31:14.25 | 6:25.67 | 140575 | 169516 6 | 37:40.17 | 15:39.01 | 169517 | 239942 7 | 53:19.18 | 3:57.25 | 239943 | 257742 8 | 57:16.43 | 2:30.53 | 257743 | 269045
Range status and errors
Selected range
Filename G:\Ripped general\[7806] Saint-Saëns – Cello Concertos – Natalie Clein (Romantic Cello Concerto –5)\Saint-Saëns - Cello Concertos - Natalie Clein (Romantic Cello Concerto -5).wav
Peak level 99.4 % Extraction speed 4.3 X Range quality 99.9 % Test CRC 6B3D93EB Copy CRC 6B3D93EB Copy OK
No errors occurred
AccurateRip summary
Track 1 not present in databaseTrack 2 not present in databaseTrack 3 not present in databaseTrack 4 not present in databaseTrack 5 not present in databaseTrack 6 not present in databaseTrack 7 not present in databaseTrack 8 not present in database
None of the tracks are present in the AccurateRip database
End of status report
==== Log checksum 6230BECCCE4AF5C832A5494CBEF8B89CC5B16C7C3C4E3BD1149637AE8C29DA55 ====

Содержание индексной карты (.CUE)

REM GENRE ClassicalREM DATE 2013REM DISCID 6C0E0308REM COMMENT "ExactAudioCopy v1.0b3"CATALOG 0034571280028PERFORMER "Natalie Clein & Andrew Manze"TITLE "Saint-Saens – Cello Concertos – Natalie Clein"FILE "Saint-Saens – Cello Concertos – Natalie Clein.flac" WAVE TRACK 01 AUDIO TITLE "Cello Concerto No. 1 in A minor, Op. 33 (1872) - Allegro non troppo" PERFORMER "Natalie Clein & Andrew Manze" ISRC GBAJY1400201 INDEX 01 00:00:00 TRACK 02 AUDIO TITLE "Cello Concerto No. 1 in A minor, Op. 33 (1872) - Allegretto con moto -" PERFORMER "Natalie Clein & Andrew Manze" ISRC GBAJY1400202 INDEX 01 05:52:44 TRACK 03 AUDIO TITLE "Cello Concerto No. 1 in A minor, Op. 33 (1872) - Tempo primo" PERFORMER "Natalie Clein & Andrew Manze" ISRC GBAJY1400203 INDEX 01 10:54:12 TRACK 04 AUDIO TITLE "Cello Concerto No. 2 in D minor, Op. 119 (1902) - I. Allegro moderato e maestoso - Andante sostenuto" PERFORMER "Natalie Clein & Andrew Manze" ISRC GBAJY1400204 INDEX 00 19:39:39 INDEX 01 19:47:17 TRACK 05 AUDIO TITLE "Cello Concerto No. 2 in D minor, Op. 119 (1902) - II. Allegro non troppo - Cadenza - Tempo I - Molto allegro" PERFORMER "Natalie Clein & Andrew Manze" ISRC GBAJY1400205 INDEX 01 31:14:25 TRACK 06 AUDIO TITLE "La muse et le poete, Op. 132 (1910), for violin & cello with orchestra" PERFORMER "Antje Weithaas, Natalie Clein & Andrew Manze" ISRC GBAJY1400206 INDEX 00 37:28:60 INDEX 01 37:40:17 TRACK 07 AUDIO TITLE "Allegro appassionato, Op. 43 (1873, orch. 1876)" PERFORMER "Natalie Clein & Andrew Manze" ISRC GBAJY1400207 INDEX 00 53:14:71 INDEX 01 53:19:18 TRACK 08 AUDIO TITLE "Le carnaval des animaux - No. 13. Le cygne (1886), for solo cello & two pianos" PERFORMER "Natalie Clein, Julia Lynch, Judith Keaney & Andrew Manze" ISRC GBAJY1400208 INDEX 00 57:10:47 INDEX 01 57:16:43

Вариант индексной карты (.CUE) с исправленными зазорами и разделением Второго концерта

REM GENRE ClassicalREM DATE 2013REM DISCID 6C0E0308REM COMMENT "ExactAudioCopy v1.0b3"CATALOG 0034571280028PERFORMER "Natalie Clein & Andrew Manze"TITLE "Saint-Saens – Cello Concertos – Natalie Clein"FILE "Saint-Saens – Cello Concertos – Natalie Clein.flac" WAVE TRACK 01 AUDIO TITLE "Cello Concerto No. 1 in A minor, Op. 33 (1872) - Allegro non troppo" PERFORMER "Natalie Clein & Andrew Manze" ISRC GBAJY1400201 INDEX 00 00:00:00 INDEX 01 00:03:66 TRACK 02 AUDIO TITLE "Cello Concerto No. 1 in A minor, Op. 33 (1872) - Allegretto con moto -" PERFORMER "Natalie Clein & Andrew Manze" ISRC GBAJY1400202 INDEX 01 05:52:44 TRACK 03 AUDIO TITLE "Cello Concerto No. 1 in A minor, Op. 33 (1872) - Tempo primo" PERFORMER "Natalie Clein & Andrew Manze" ISRC GBAJY1400203 INDEX 01 10:54:42 TRACK 04 AUDIO TITLE "Cello Concerto No. 2 in D minor, Op. 119 (1902) - I. Allegro moderato e maestoso -" PERFORMER "Natalie Clein & Andrew Manze" ISRC GBAJY1400204 INDEX 00 19:37:06 INDEX 01 19:47:17 TRACK 05 AUDIO TITLE "Cello Concerto No. 2 in D minor, Op. 119 (1902) - Andante sostenuto" PERFORMER "Natalie Clein & Andrew Manze" ISRC GBAJY1400205 INDEX 01 23:41:41 TRACK 06 AUDIO TITLE "Cello Concerto No. 2 in D minor, Op. 119 (1902) - II. Allegro non troppo - Cadenza - Tempo I - Molto allegro" PERFORMER "Natalie Clein & Andrew Manze" ISRC GBAJY1400206 INDEX 01 31:14:25 TRACK 07 AUDIO TITLE "La muse et le poete, Op. 132 (1910), for violin & cello with orchestra" PERFORMER "Antje Weithaas, Natalie Clein & Andrew Manze" ISRC GBAJY1400207 INDEX 00 37:25:46 INDEX 01 37:40:17 TRACK 08 AUDIO TITLE "Allegro appassionato, Op. 43 (1873, orch. 1876)" PERFORMER "Natalie Clein & Andrew Manze" ISRC GBAJY1400208 INDEX 00 53:14:71 INDEX 01 53:19:18 TRACK 09 AUDIO TITLE "Le carnaval des animaux - No. 13. Le cygne (1886), for solo cello & two pianos" PERFORMER "Natalie Clein, Julia Lynch, Judith Keaney & Andrew Manze" INDEX 00 57:10:47 INDEX 01 57:16:43 INDEX 02 59:37:41

Вариант индексной карты (.CUE) с исправленными зазорами, разделением Второго концерта и «Музы и поэта»

REM GENRE Classical
REM DATE 2013
REM DISCID 6C0E0308
REM COMMENT "ExactAudioCopy v1.0b3"
CATALOG 0034571280028
PERFORMER "Natalie Clein & Andrew Manze"
TITLE "Saint-Saens – Cello Concertos – Natalie Clein"
FILE "Saint-Saens – Cello Concertos – Natalie Clein.flac" WAVE
TRACK 01 AUDIO
TITLE "Cello Concerto No. 1 in A minor, Op. 33 (1872) - Allegro non troppo"
PERFORMER "Natalie Clein & Andrew Manze"
ISRC GBAJY1400201
INDEX 00 00:00:00
INDEX 01 00:03:66
TRACK 02 AUDIO
TITLE "Cello Concerto No. 1 in A minor, Op. 33 (1872) - Allegretto con moto -"
PERFORMER "Natalie Clein & Andrew Manze"
ISRC GBAJY1400202
INDEX 01 05:52:44
TRACK 03 AUDIO
TITLE "Cello Concerto No. 1 in A minor, Op. 33 (1872) - Tempo primo"
PERFORMER "Natalie Clein & Andrew Manze"
ISRC GBAJY1400203
INDEX 01 10:54:42
TRACK 04 AUDIO
TITLE "Cello Concerto No. 2 in D minor, Op. 119 (1902) - I. Allegro moderato e maestoso - Andante sostenuto"
PERFORMER "Natalie Clein & Andrew Manze"
ISRC GBAJY1400204
INDEX 00 19:37:06
INDEX 01 19:47:17
TRACK 05 AUDIO
TITLE "Cello Concerto No. 2 in D minor, Op. 119 (1902) - Andante sostenuto"
PERFORMER "Natalie Clein & Andrew Manze"
ISRC GBAJY1400205
INDEX 01 23:41:41
TRACK 06 AUDIO
TITLE "Cello Concerto No. 2 in D minor, Op. 119 (1902) - II. Allegro non troppo - Cadenza - Tempo I - Molto allegro"
PERFORMER "Natalie Clein & Andrew Manze"
ISRC GBAJY1400206
INDEX 01 31:14:25
TRACK 07 AUDIO
TITLE "La muse et le poete, Op. 132 (1910), for violin & cello with orchestra - Andantino - Poco allegro - Animato -"
PERFORMER "Antje Weithaas, Natalie Clein & Andrew Manze"
ISRC GBAJY1400207
INDEX 00 37:25:46
INDEX 01 37:40:17
TRACK 08 AUDIO
TITLE "La muse et le poete, Op. 132 (1910), for violin & cello with orchestra - Molto allegro -"
PERFORMER "Antje Weithaas, Natalie Clein & Andrew Manze"
ISRC GBAJY1400208
INDEX 01 45:29:03
TRACK 09 AUDIO
TITLE "La muse et le poete, Op. 132 (1910), for violin & cello with orchestra - Le double plus lent - Andante -"
PERFORMER "Antje Weithaas, Natalie Clein & Andrew Manze"
INDEX 01 46:29:56
TRACK 10 AUDIO
TITLE "La muse et le poete, Op. 132 (1910), for violin & cello with orchestra - Andantino - Allegretto"
PERFORMER "Antje Weithaas, Natalie Clein & Andrew Manze"
INDEX 01 48:54:31
TRACK 11 AUDIO
TITLE "Allegro appassionato, Op. 43 (1873, orch. 1876)"
PERFORMER "Natalie Clein & Andrew Manze"
INDEX 00 53:14:71
INDEX 01 53:19:18
TRACK 12 AUDIO
TITLE "Le carnaval des animaux - No. 13. Le cygne (1886), for solo cello & two pianos"
PERFORMER "Natalie Clein, Julia Lynch, Judith Keaney & Andrew Manze"
INDEX 00 57:10:47
INDEX 01 57:16:43
INDEX 02 59:37:41
[teatrix.ru].t9882.torrent 
Торрент: Зарегистрирован [ 2015-10-25 20:37 ] · 44D060E291D25732028857D27D27E4F79656DD4E

Скачать .torrent

Скачать

20 KB

Статус: проверено
Скачан: 0 раз
Размер: 238 MB
terms.php



Быстрый ответ

Имя:

      
Для отправки сообщений необходимо включить JavaScript
Показать сообщения:    

Текущее время: 06-Дек 11:08

Часовой пояс: UTC + 3


Вы можете начинать темы
Вы можете отвечать на сообщения
Вы не можете редактировать свои сообщения
Вы не можете удалять свои сообщения
Вы не можете голосовать в опросах
Вы не можете прикреплять файлы к сообщениям
Вы можете скачивать файлы