(Classical) Ludwig van Beethoven — Piano Concerto № 3 & Piano Sonata № 11 (Op 37 & 22) (Dubravka Tomsic, Hugo Steurer; Paul Kantschieder) — 1994, APE (image+.cue) lossless


Статистика раздачи [Обновить пиров]
Размер:  184 MB   |    Зарегистрирован:  1 год 1 месяц   |    Скачан:  0 раз

Полного источника не было: Никогда

Личеров:  1  [  0 KB/s  ]   Подробная статистика пиров
 
   
 
 
 

[Цитировать]

Piano Concerto № 3 & Piano Sonata № 11 (Op 37 & 22)- Жанр: Classical
Страна-производитель диска: Германия
Год издания диска: 1994
Издатель (лейбл): Point Classics
Номер по каталогу: 2671162
CATALOG: 027726711621
Композитор: Ludwig van Beethoven
Аудио кодек: ape
Тип рипа: image+.cue
Битрейт аудио: lossless
Продолжительность: 00h59'53"
Источник: собственный рип
Наличие сканов в содержимом раздачи: нет-Треклист:
Piano Concerto № 3 с-moll Op 37
01. I. Allegro con brio [00h17'04"]
02. II. Largo [00h09'48"]
03. III. Rondo [00h09'05"]
Piano Sonata № 11 H-Dur Op 22
04. I. Allegro con brio [00h07'39"]
05. II. Adagio con molto espressione [00h07'16"]
06. III. Menuetto [00h03'19"]
07. IV. Rondo [00h05'42"]-(01-03) Radio Symphony Orchestra Ljubljana, cond. Paul Kantschieder, Piano – Dubravka Tomšič
(04-07) Piano – Hugo Steurer-

EAC log

Exact Audio Copy V0.99 prebeta 5 from 4. May 2009
Отчёт EAC об извлечении, выполненном 30. сентября 2014, 21:47
Beethoven / Piano Concerto 3 Piano Sonata 11
Дисковод: MITSUMI CR-486ETE   Adapter: 0  ID: 0
Режим чтения                 : Достоверность
Использование точного потока : Да
Отключение кэша аудио        : Да
Использование указателей C2  : Нет
Коррекция смещения при чтении                     : 6
Способность читать области Lead-in и Lead-out     : Нет
Заполнение пропущенных сэмплов тишиной            : Да
Удаление блоков с тишиной в начале и конце        : Нет
При вычислениях CRC использовались нулевые сэмплы : Да
Интерфейс                                         : Установленный внешний ASPI-интерфейс
Выходной формат          : Monkey's Audio (без потерь)
Выбранный битрейт        : Normal Lossless Compression
Качество                 : Высокий
Добавление ID3-тэга      : Нет
Утилита сжатия           : C:\Program Files\Monkey's Audio\MAC.exe
TOC извлечённого CD
     Трек |   Старт  | Длительность | Начальный сектор | Конечный сектор
    ---------------------------------------------------------------------
       1  |  0:00.00 |   17:03.52   |           0      |      76776
       2  | 17:03.52 |    9:47.58   |       76777      |     120859
       3  | 26:51.35 |    9:05.30   |      120860      |     161764
       4  | 35:56.65 |    7:39.10   |      161765      |     196199
       5  | 43:36.00 |    7:16.10   |      196200      |     228909
       6  | 50:52.10 |    3:18.67   |      228910      |     243826
       7  | 54:11.02 |    5:41.68   |      243827      |     269469
Характеристики диапазона извлечения и сообщения об ошибках
Выбранный диапазон
     Имя файла D:\Музыка lossless\Beethoven Piano Concerto 3 Piano Sonata 11\Beethoven - Piano Concerto 3 Piano Sonata 11.wav
     Пиковый уровень 89.2 %
     Качество диапазона 99.9 %
     CRC теста D9FCC24E
     CRC копии D9FCC24E
     Копирование... OK
Ошибок не произошло
AccurateRip: сводка
Трек  1  нет в базе данных
Трек  2  нет в базе данных
Трек  3  нет в базе данных
Трек  4  нет в базе данных
Трек  5  нет в базе данных
Трек  6  нет в базе данных
Трек  7  нет в базе данных
Ни одного трека нет в базе AccurateRip
Конец отчёта

-

CUE

REM GENRE Classical
REM DATE 1994
REM DISCID 4F0E0807
REM COMMENT "ExactAudioCopy v0.99pb5"
PERFORMER "Beethoven"
TITLE "Piano Concerto 3 Piano Sonata 11"
FILE "Beethoven - Piano Concerto 3 Piano Sonata 11.ape" WAVE
  TRACK 01 AUDIO
    TITLE "Piano Concerto № 3 c-moll Op 37 – I. Allegro con brio"
    PERFORMER "Beethoven"
    INDEX 01 00:00:00
  TRACK 02 AUDIO
    TITLE "Piano Concerto № 3 c-moll Op 37 – II. Largo"
    PERFORMER "Beethoven"
    INDEX 00 16:58:32
    INDEX 01 17:03:52
  TRACK 03 AUDIO
    TITLE "Piano Concerto № 3 c-moll Op 37 – III. Rondo"
    PERFORMER "Beethoven"
    INDEX 00 26:49:02
    INDEX 01 26:51:35
  TRACK 04 AUDIO
    TITLE "Piano Sonata № 11 H-Dur Op 22 – I. Allegro con brio"
    PERFORMER "Beethoven"
    INDEX 00 35:50:14
    INDEX 01 35:56:65
  TRACK 05 AUDIO
    TITLE "Piano Sonata № 11 H-Dur Op 22 – II. Adagio con molto espressione"
    PERFORMER "Beethoven"
    INDEX 00 43:33:27
    INDEX 01 43:36:00
  TRACK 06 AUDIO
    TITLE "Piano Sonata № 11 H-Dur Op 22 – III. Menuetto"
    PERFORMER "Beethoven"
    INDEX 00 50:50:64
    INDEX 01 50:52:10
  TRACK 07 AUDIO
    TITLE "Piano Sonata № 11 H-Dur Op 22 – IV. Rondo"
    PERFORMER "Beethoven"
    INDEX 00 54:09:54
    INDEX 01 54:11:02

-

Доп. информация

Дефект штамповки: Op 37, Allegro con brio – где-то на 02:50 на секунду пропадает звук. Полноценный вариант здесь.
-
[teatrix.ru].t9883.torrent 
Торрент: Зарегистрирован [ 2015-10-25 20:37 ] · 72A325F837123278E899641967F1906E981AD269

Скачать .torrent

Скачать

15 KB

Статус: проверено
Скачан: 0 раз
Размер: 184 MB
terms.php



Быстрый ответ

Имя:

      
Для отправки сообщений необходимо включить JavaScript
Показать сообщения:    

Текущее время: 05-Дек 23:34

Часовой пояс: UTC + 3


Вы можете начинать темы
Вы можете отвечать на сообщения
Вы не можете редактировать свои сообщения
Вы не можете удалять свои сообщения
Вы не можете голосовать в опросах
Вы не можете прикреплять файлы к сообщениям
Вы можете скачивать файлы