(Classical, 20th century) Сергей Прокофьев - Фортепианные концерты №№1-5 - Jean-Efflam Bavouzet, BBC Philharmonic, Gianandrea Noseda - 2014, FLAC (image+.cue) lossless


Статистика раздачи [Обновить пиров]
Размер:  433 MB   |    Зарегистрирован:  1 год 1 месяц   |    Скачан:  0 раз

Полного источника не было: Никогда

Личеров:  1  [  0 KB/s  ]   Подробная статистика пиров
 
   
 
 
 

[Цитировать]

Сергей Прокофьев - Фортепианные концерты №№1-5 - Jean-Efflam Bavouzet, BBC Philharmonic, Gianandrea Noseda
Жанр: Classical, 20th century
Страна-производитель диска: UK
Год издания диска: 2014
Издатель (лейбл): Chandos Records
Номер по каталогу: CHAN 10802(2)
Дата записи: 2012, 2013
Аудиокодек: FLAC
Тип рипа: image+.cue
Битрейт аудио: lossless
Продолжительность: 121:37
Источник: собственный рип
Наличие сканов в содержимом раздачи: да
Треклист:
Сергей Прокофьев (1891-1953)
CD1
[1]-[4] Концерт для фортепиано с оркестром №1 ре бемоль мажор, Op.10
[5]-[8] Концерт для фортепиано с оркестром №2 соль минор, Op.16
[9]-[11] Концерт для фортепиано с оркестром №3 до мажор, Op.26
CD2
[1]-[4] Концерт для фортепиано с оркестром №4 си бемоль мажор, Op.53
[5]-[9] Концерт для фортепиано с оркестром №5 соль мажор, Op.55
Исполнители:
Jean-Efflam Bavouzet piano
BBC Philharmonic
Gianandrea Noseda

Лог создания рипа: CD1

Exact Audio Copy V1.0 beta 3 from 29. August 2011
EAC extraction logfile from 22. September 2014, 0:31
Jean-Efflam Bavouzet; BBC Philharmonic, Gianandrea Noseda / Prokofiev - Piano Concertos - CD1
Used drive : HL-DT-STDVDRAM GU70N Adapter: 0 ID: 0
Read mode : SecureUtilize accurate stream : YesDefeat audio cache : YesMake use of C2 pointers : No
Read offset correction : 48Overread into Lead-In and Lead-Out : NoFill up missing offset samples with silence : YesDelete leading and trailing silent blocks : NoNull samples used in CRC calculations : YesUsed interface : Native Win32 interface for Win NT & 2000
Used output format : User Defined EncoderSelected bitrate : 128 kBit/sQuality : HighAdd ID3 tag : NoCommand line compressor : C:\Program Files (x86)\Exact Audio Copy\Flac\flac.exeAdditional command line options : -V -8 -T "Date=%year%" -T "Genre=%genre%" %source%
TOC of the extracted CD
Track | Start | Length | Start sector | End sector --------------------------------------------------------- 1 | 0:00.00 | 3:27.04 | 0 | 15528 2 | 3:27.04 | 3:16.25 | 15529 | 30253 3 | 6:43.29 | 4:20.33 | 30254 | 49786 4 | 11:03.62 | 4:28.55 | 49787 | 69941 5 | 15:32.42 | 11:09.12 | 69942 | 120128 6 | 26:41.54 | 2:31.42 | 120129 | 131495 7 | 29:13.21 | 6:19.32 | 131496 | 159952 8 | 35:32.53 | 11:22.10 | 159953 | 211112 9 | 46:54.63 | 9:18.33 | 211113 | 252995 10 | 56:13.21 | 8:57.42 | 252996 | 293312 11 | 65:10.63 | 9:35.62 | 293313 | 336499
Range status and errors
Selected range
Filename C:\temp\Prokofiev - Piano Concertos - Bavouzet\Prokofiev - Piano Concertos - CD1.wav
Peak level 99.9 % Extraction speed 2.3 X Range quality 99.9 % Test CRC DC5CD4B1 Copy CRC DC5CD4B1 Copy OK
No errors occurred
AccurateRip summary
Track 1 accurately ripped (confidence 3) [B1A87009] (AR v2)Track 2 accurately ripped (confidence 3) [EEE28428] (AR v2)Track 3 accurately ripped (confidence 3) [5B9BE52B] (AR v2)Track 4 accurately ripped (confidence 3) [6DA5B102] (AR v2)Track 5 accurately ripped (confidence 3) [D8B47360] (AR v2)Track 6 accurately ripped (confidence 3) [308FC900] (AR v2)Track 7 accurately ripped (confidence 3) [ADEE3C33] (AR v2)Track 8 accurately ripped (confidence 3) [AAE888E8] (AR v2)Track 9 accurately ripped (confidence 3) [05E75082] (AR v2)Track 10 accurately ripped (confidence 3) [66E1AE34] (AR v2)Track 11 accurately ripped (confidence 3) [C083BDAB] (AR v2)
All tracks accurately ripped
End of status report
==== Log checksum 5EAE11D9C083351022A1C5E59E29EC2E31E9C82F9EC72CAAE8FCC0D03689E371 ====

Лог создания рипа: CD2

Exact Audio Copy V1.0 beta 3 from 29. August 2011
EAC extraction logfile from 22. September 2014, 1:31
Jean-Efflam Bavouzet; BBC Philharmonic, Gianandrea Noseda / Prokofiev - Piano Concertos - CD2
Used drive : HL-DT-STDVDRAM GU70N Adapter: 0 ID: 0
Read mode : SecureUtilize accurate stream : YesDefeat audio cache : YesMake use of C2 pointers : No
Read offset correction : 48Overread into Lead-In and Lead-Out : NoFill up missing offset samples with silence : YesDelete leading and trailing silent blocks : NoNull samples used in CRC calculations : YesUsed interface : Native Win32 interface for Win NT & 2000
Used output format : User Defined EncoderSelected bitrate : 128 kBit/sQuality : HighAdd ID3 tag : NoCommand line compressor : C:\Program Files (x86)\Exact Audio Copy\Flac\flac.exeAdditional command line options : -V -8 -T "Date=%year%" -T "Genre=%genre%" %source%
TOC of the extracted CD
Track | Start | Length | Start sector | End sector --------------------------------------------------------- 1 | 0:00.00 | 4:25.72 | 0 | 19946 2 | 4:25.72 | 9:33.22 | 19947 | 62943 3 | 13:59.19 | 8:09.17 | 62944 | 99635 4 | 22:08.36 | 1:35.36 | 99636 | 106796 5 | 23:43.72 | 4:54.54 | 106797 | 128900 6 | 28:38.51 | 3:41.21 | 128901 | 145496 7 | 32:19.72 | 1:54.06 | 145497 | 154052 8 | 34:14.03 | 7:07.00 | 154053 | 186077 9 | 41:21.03 | 5:32.44 | 186078 | 211021
Range status and errors
Selected range
Filename C:\temp\Prokofiev - Piano Concertos - Bavouzet\Prokofiev - Piano Concertos - CD2.wav
Peak level 97.1 % Extraction speed 4.8 X Range quality 100.0 % Test CRC 19847A32 Copy CRC 19847A32 Copy OK
No errors occurred
AccurateRip summary
Track 1 accurately ripped (confidence 3) [AEE6DA55] (AR v2)Track 2 accurately ripped (confidence 3) [899AC12F] (AR v2)Track 3 accurately ripped (confidence 3) [99601E8A] (AR v2)Track 4 accurately ripped (confidence 3) [CC24D1BC] (AR v2)Track 5 accurately ripped (confidence 3) [054A06A2] (AR v2)Track 6 accurately ripped (confidence 3) [6D35E004] (AR v2)Track 7 accurately ripped (confidence 3) [5A0FCCCE] (AR v2)Track 8 accurately ripped (confidence 3) [9BC447D6] (AR v2)Track 9 accurately ripped (confidence 3) [C351B347] (AR v2)
All tracks accurately ripped
End of status report
==== Log checksum DCACC7EFC6D1F1C040D4317E70C68A612B8C5997015A07BB60D2D09615CB2FBC ====
[teatrix.ru].t9884.torrent 
Торрент: Зарегистрирован [ 2015-10-25 20:37 ] · D1C0687C50964939798E6AF168353354EB32A743

Скачать .torrent

Скачать

36 KB

Статус: проверено
Скачан: 0 раз
Размер: 433 MB
terms.php



Быстрый ответ

Имя:

      
Для отправки сообщений необходимо включить JavaScript
Показать сообщения:    

Текущее время: 04-Дек 21:26

Часовой пояс: UTC + 3


Вы можете начинать темы
Вы можете отвечать на сообщения
Вы не можете редактировать свои сообщения
Вы не можете удалять свои сообщения
Вы не можете голосовать в опросах
Вы не можете прикреплять файлы к сообщениям
Вы можете скачивать файлы