(Classical) The Hyperion Romantic Piano Concerto – Vol. 63: Godard (Shelley) - 2014, FLAC (image+.cue) lossless


Статистика раздачи [Обновить пиров]
Размер:  240 MB   |    Зарегистрирован:  1 год 1 месяц   |    Скачан:  0 раз

Полного источника не было: Никогда

Личеров:  1  [  0 KB/s  ]   Подробная статистика пиров
 
   
 
 
 

[Цитировать]

The Hyperion Romantic Piano Concerto – Vol. 63: Godard (Shelley)
Жанр: Classical
Страна-производитель диска: Франция
Год издания диска: 2014
Издатель (лейбл): Hyperion
Номер по каталогу: CDA68043
Дата записи: 23 — 24 и 26 — 27 апреля 2013 г., Хобарт.
Аудиокодек: FLAC
Тип рипа: image+.cue
Битрейт аудио: lossless
Продолжительность: 01:10:13
Источник: odeonmusic
Наличие сканов в содержимом раздачи: да
Треклист:
Бенжамен Луи Поль Годар (1849 — 1895).
Фортепианный концерт № 1 a-moll, op. 31 (1875).
01. I. Andante. — Allegro vivace [09:48].
02. II. Scherzo. Allegretto non troppo [04:38].
03. III. Andante quasi adagio [08:29].
04. IV. Vivace ma non troppo. — Allegro non troppo [06:59].
Фортепианный концерт № 2 G-dur (g-moll), op. 148 (1893).
05. I. Con moto. — Allegro. — Moderato [09:35].
06. II. Andante. — [07:17].
07. III. Scherzo. Allegretto [03:10].
08. IV. Andante maestoso. — Moderato [08:33].
Интродукция и аллегро d-moll (F-dur) для фортепиано с оркестром, op. 49 (1880).
09. I. Lento. — [05:20].
10. II. Allegro. — Allegro moderato [06:22].
Исполнители:
Howard Shelley (фортепиано и дирижер).
Tasmanian Symphony Orchestra.

Лог создания рипа

Exact Audio Copy V1.0 beta 3 from 29. August 2011
EAC extraction logfile from 2. July 2014, 15:59
Howard Shelley / Benjamin Godard - Piano Concertos - Howard Shelley (Romantic Piano Concerto - 63)
Used drive : TSSTcorpCDDVDW SH-222BB Adapter: 2 ID: 1
Read mode : SecureUtilize accurate stream : YesDefeat audio cache : YesMake use of C2 pointers : No
Read offset correction : 6Overread into Lead-In and Lead-Out : NoFill up missing offset samples with silence : YesDelete leading and trailing silent blocks : NoNull samples used in CRC calculations : YesUsed interface : Native Win32 interface for Win NT & 2000
Used output format : User Defined EncoderSelected bitrate : 896 kBit/sQuality : HighAdd ID3 tag : NoCommand line compressor : C:\Program Files\Exact Audio Copy\FLAC\FLAC.EXEAdditional command line options : -8 -V -T "TITLE=%title%" -T "ARTIST=%artist%" -T "ALBUMARTIST=%albumartist%" -T "ALBUM=%albumtitle%" -T "DATE=%year%" -T "TRACKNUMBER=%tracknr%" -T "TRACKTOTAL=%numtracks%" -T "GENRE=%genre%" -T "COMMENT=%comment%" -T "PERFORMER=%albuminterpret%" -T "COMPOSER=%composer%" %source% -o %dest%
TOC of the extracted CD
Track | Start | Length | Start sector | End sector --------------------------------------------------------- 1 | 0:00.00 | 9:48.11 | 0 | 44110 2 | 9:48.11 | 4:37.42 | 44111 | 64927 3 | 14:25.53 | 8:29.10 | 64928 | 103112 4 | 22:54.63 | 6:58.58 | 103113 | 134520 5 | 29:53.46 | 9:35.32 | 134521 | 177677 6 | 39:29.03 | 7:16.69 | 177678 | 210446 7 | 46:45.72 | 3:10.00 | 210447 | 224696 8 | 49:55.72 | 8:32.60 | 224697 | 263156 9 | 58:28.57 | 5:20.37 | 263157 | 287193 10 | 63:49.19 | 6:21.56 | 287194 | 315824
Range status and errors
Selected range
Filename G:\Ripped general\[7974] Benjamin Godard – Piano Concertos – Howard Shelley (Romantic Piano Concerto – 63)\Benjamin Godard - Piano Concertos - Howard Shelley (Romantic Piano Concerto - 63).wav
Peak level 99.9 % Extraction speed 6.8 X Range quality 100.0 % Test CRC 037D479C Copy CRC 037D479C Copy OK
No errors occurred
AccurateRip summary
Track 1 not present in databaseTrack 2 not present in databaseTrack 3 not present in databaseTrack 4 not present in databaseTrack 5 not present in databaseTrack 6 not present in databaseTrack 7 not present in databaseTrack 8 not present in databaseTrack 9 not present in databaseTrack 10 not present in database
None of the tracks are present in the AccurateRip database
End of status report
==== Log checksum EE66329A1FF11E0C12FF00320A843AE38C021AC78CEBCBD4A008F0658D449296 ====

Содержание индексной карты (.CUE)

REM GENRE ClassicalREM DATE 2013REM DISCID 9D10730AREM COMMENT "ExactAudioCopy v1.0b3"CATALOG 0034571280431PERFORMER "Howard Shelley"TITLE "Benjamin Godard – Piano Concertos – Howard Shelley"FILE "Benjamin Godard – Piano Concertos – Howard Shelley.flac" WAVE TRACK 01 AUDIO TITLE "Piano Concerto No. 1 in A minor, Op. 31 (1875) - I. Andante - Allegro vivace" PERFORMER "Howard Shelley" ISRC GBAJY1404301 INDEX 01 00:00:00 TRACK 02 AUDIO TITLE "Piano Concerto No. 1 in A minor, Op. 31 (1875) - II. Scherzo. Allegretto non troppo" PERFORMER "Howard Shelley" ISRC GBAJY1404302 INDEX 01 09:48:11 TRACK 03 AUDIO TITLE "Piano Concerto No. 1 in A minor, Op. 31 (1875) - III. Andante quasi adagio" PERFORMER "Howard Shelley" ISRC GBAJY1404303 INDEX 01 14:25:53 TRACK 04 AUDIO TITLE "Piano Concerto No. 1 in A minor, Op. 31 (1875) - IV. Allegro ma non troppo (Vivace)" PERFORMER "Howard Shelley" ISRC GBAJY1404304 INDEX 01 22:54:63 TRACK 05 AUDIO TITLE "Piano Concerto No. 2 in G minor, Op. 148 (1893) - I. Con moto - Allegro - Moderato" PERFORMER "Howard Shelley" ISRC GBAJY1404305 INDEX 00 29:40:05 INDEX 01 29:53:46 TRACK 06 AUDIO TITLE "Piano Concerto No. 2 in G minor, Op. 148 (1893) - II. Andante -" PERFORMER "Howard Shelley" ISRC GBAJY1404306 INDEX 01 39:29:03 TRACK 07 AUDIO TITLE "Piano Concerto No. 2 in G minor, Op. 148 (1893) - III. Scherzo. Allegretto" PERFORMER "Howard Shelley" ISRC GBAJY1404307 INDEX 01 46:45:72 TRACK 08 AUDIO TITLE "Piano Concerto No. 2 in G minor, Op. 148 (1893) - IV. Andante maestoso - Moderato" PERFORMER "Howard Shelley" ISRC GBAJY1404308 INDEX 01 49:55:72 TRACK 09 AUDIO TITLE "Introduction & Allegro, Op. 49 (1880) - I. Lento -" PERFORMER "Howard Shelley" ISRC GBAJY1404309 INDEX 00 58:16:43 INDEX 01 58:28:57 TRACK 10 AUDIO TITLE "Introduction & Allegro, Op. 49 (1880) - II. Allegro" PERFORMER "Howard Shelley" ISRC GBAJY1404310 INDEX 01 63:49:19

Вариант индексной карты (.CUE) с выставленными зазорами

REM GENRE ClassicalREM DATE 2013REM DISCID 9D10730AREM COMMENT "ExactAudioCopy v1.0b3"CATALOG 0034571280431PERFORMER "Howard Shelley"TITLE "Benjamin Godard – Piano Concertos – Howard Shelley"FILE "Benjamin Godard – Piano Concertos – Howard Shelley.flac" WAVE TRACK 01 AUDIO TITLE "Piano Concerto No. 1 in A minor, Op. 31 (1875) - I. Andante - Allegro vivace" PERFORMER "Howard Shelley" ISRC GBAJY1404301 INDEX 00 00:00:00 INDEX 01 00:02:56 TRACK 02 AUDIO TITLE "Piano Concerto No. 1 in A minor, Op. 31 (1875) - II. Scherzo. Allegretto non troppo" PERFORMER "Howard Shelley" ISRC GBAJY1404302 INDEX 00 09:40:39 INDEX 01 09:48:11 TRACK 03 AUDIO TITLE "Piano Concerto No. 1 in A minor, Op. 31 (1875) - III. Andante quasi adagio" PERFORMER "Howard Shelley" ISRC GBAJY1404303 INDEX 00 14:20:10 INDEX 01 14:25:53 TRACK 04 AUDIO TITLE "Piano Concerto No. 1 in A minor, Op. 31 (1875) - IV. Allegro ma non troppo (Vivace)" PERFORMER "Howard Shelley" ISRC GBAJY1404304 INDEX 00 22:51:73 INDEX 01 22:54:63 TRACK 05 AUDIO TITLE "Piano Concerto No. 2 in G minor, Op. 148 (1893) - I. Con moto - Allegro - Moderato" PERFORMER "Howard Shelley" ISRC GBAJY1404305 INDEX 00 29:40:05 INDEX 01 29:53:46 TRACK 06 AUDIO TITLE "Piano Concerto No. 2 in G minor, Op. 148 (1893) - II. Andante -" PERFORMER "Howard Shelley" ISRC GBAJY1404306 INDEX 00 39:23:11 INDEX 01 39:29:03 TRACK 07 AUDIO TITLE "Piano Concerto No. 2 in G minor, Op. 148 (1893) - III. Scherzo. Allegretto" PERFORMER "Howard Shelley" ISRC GBAJY1404307 INDEX 01 46:46:15 TRACK 08 AUDIO TITLE "Piano Concerto No. 2 in G minor, Op. 148 (1893) - IV. Andante maestoso - Moderato" PERFORMER "Howard Shelley" ISRC GBAJY1404308 INDEX 00 49:53:43 INDEX 01 49:55:72 TRACK 09 AUDIO TITLE "Introduction & Allegro, Op. 49 (1880) - I. Lento -" PERFORMER "Howard Shelley" ISRC GBAJY1404309 INDEX 00 58:16:43 INDEX 01 58:28:57 TRACK 10 AUDIO TITLE "Introduction & Allegro, Op. 49 (1880) - II. Allegro" PERFORMER "Howard Shelley" ISRC GBAJY1404310 INDEX 01 63:49:19 INDEX 02 70:03:59
[teatrix.ru].t9885.torrent 
Торрент: Зарегистрирован [ 2015-10-25 20:37 ] · E73AEA65110D961FD7D5F026B025E83A8B1A76FF

Скачать .torrent

Скачать

20 KB

Статус: проверено
Скачан: 0 раз
Размер: 240 MB
terms.php



Быстрый ответ

Имя:

      
Для отправки сообщений необходимо включить JavaScript
Показать сообщения:    

Текущее время: 11-Дек 05:20

Часовой пояс: UTC + 3


Вы можете начинать темы
Вы можете отвечать на сообщения
Вы не можете редактировать свои сообщения
Вы не можете удалять свои сообщения
Вы не можете голосовать в опросах
Вы не можете прикреплять файлы к сообщениям
Вы можете скачивать файлы