(Classical) The Best Piano Music Vol.1 (Bach, Mozart, Beethoven, Chopin, Grieg) (Tomsic, Margulis (Маргулис), Jaccottet, Stanceva; Nanut, Lizzio) — 1995, APE (image+.cue) lossless


Статистика раздачи [Обновить пиров]
Размер:  226 MB   |    Зарегистрирован:  1 год 1 месяц   |    Скачан:  0 раз

Полного источника не было: Никогда

Личеров:  1  [  0 KB/s  ]   Подробная статистика пиров
 
   
 
 
 

[Цитировать]

The Best Piano Music Vol.1- Жанр: Classical
Страна-производитель диска: Германия
Год издания диска: 1995
Издатель (лейбл): Point Classics
Номер по каталогу: 2688462
CATALOG: 027726884622
Аудио кодек: ape
Тип рипа: image+.cue
Битрейт аудио: lossless
Продолжительность: 01h05'22"
Источник: собственный рип
Наличие сканов в содержимом раздачи: нет-Треклист:
Ludwig van Beethoven
Piano Sonata № 14 cis-moll Op 27/2 «Moonlight»
01. I. Adagio sostenuto [00h06'04"]
02. II. Allegretto [00h02'11"]
03. III. Presto agitato [00h07'05"]
Frederic Chopin
04. Nocturne № 19 e-moll op ph 72/1 [00h04'49"]
Edvard Grieg
Piano Concerto a-moll Op 16
05. I. Allegro molto moderato [00h13'37"]
Johann Sebastian Bach
English Suite № 1 A-Dur BWV 806
06. VIII-IX. Bourrée I & II [00h04'22"]
Wolfgang Amadeus Mozart
Piano Concerto № 21 C-Dur KV 467 «Elvira Madigan»
07. I. Allegro maestoso [00h14'37"]
08. II. Andante [00h05'36"]
09. III. Alegro vivace assai [00h07'01"]-(01-03) Piano – Dubravka Tomšič
(04) Piano – Vitalij Margulis
(05) Radio Symphony Orchestra Ljubljana, cond. Anton Nanut, Piano – Dubravka Tomšič
(06) Harpsichord – Christiane Jaccottet
(07-09) Mozart Festival Orchestra, cond. Alberto Lizzio, Piano – Svetlana Stanceva-

EAC log

Exact Audio Copy V0.99 prebeta 5 from 4. May 2009
Отчёт EAC об извлечении, выполненном 27. сентября 2014, 17:42
Various / The Best Piano Music 1
Дисковод: MITSUMI CR-486ETE   Adapter: 0  ID: 0
Режим чтения                 : Достоверность
Использование точного потока : Да
Отключение кэша аудио        : Да
Использование указателей C2  : Нет
Коррекция смещения при чтении                     : 6
Способность читать области Lead-in и Lead-out     : Нет
Заполнение пропущенных сэмплов тишиной            : Да
Удаление блоков с тишиной в начале и конце        : Нет
При вычислениях CRC использовались нулевые сэмплы : Да
Интерфейс                                         : Установленный внешний ASPI-интерфейс
Выходной формат          : Monkey's Audio (без потерь)
Выбранный битрейт        : Normal Lossless Compression
Качество                 : Высокий
Добавление ID3-тэга      : Нет
Утилита сжатия           : C:\Program Files\Monkey's Audio\MAC.exe
TOC извлечённого CD
     Трек |   Старт  | Длительность | Начальный сектор | Конечный сектор
    ---------------------------------------------------------------------
       1  |  0:00.00 |    6:04.00   |           0      |      27299
       2  |  6:04.00 |    2:11.00   |       27300      |      37124
       3  |  8:15.00 |    7:05.15   |       37125      |      69014
       4  | 15:20.15 |    4:48.55   |       69015      |      90669
       5  | 20:08.70 |   13:36.67   |       90670      |     151936
       6  | 33:45.62 |    4:21.68   |      151937      |     171579
       7  | 38:07.55 |   14:37.10   |      171580      |     237364
       8  | 52:44.65 |    5:36.37   |      237365      |     262601
       9  | 58:21.27 |    7:00.65   |      262602      |     294166
Характеристики диапазона извлечения и сообщения об ошибках
Выбранный диапазон
     Имя файла D:\Музыка lossless\The Best Piano Music 1\Various - The Best Piano Music 1.wav
     Пиковый уровень 99.0 %
     Качество диапазона 100.0 %
     CRC теста 6E21670A
     CRC копии 6E21670A
     Копирование... OK
Ошибок не произошло
AccurateRip: сводка
Трек  1  точное извлечение (доверие 1)  [0B63C4EA]
Трек  2  точное извлечение (доверие 1)  [C7643DBB]
Трек  3  точное извлечение (доверие 1)  [DA7D3D11]
Трек  4  точное извлечение (доверие 1)  [248FC906]
Трек  5  точное извлечение (доверие 1)  [CA31A6A0]
Трек  6  точное извлечение (доверие 1)  [F2A41B6C]
Трек  7  точное извлечение (доверие 1)  [F9542CC9]
Трек  8  точное извлечение (доверие 1)  [9E23A3A1]
Трек  9  точность не определена (достоверность 1)  [7D4F95F2], AccurateRip вернул [CF419003]
8 трек(и) скопированы точно
1 трек(и) не удалось проверить на точность
Некоторые треки не прошли проверку на точность
Конец отчёта

-

CUE

REM GENRE Classical
REM DATE 1995
REM DISCID 710F5209
REM COMMENT "ExactAudioCopy v0.99pb5"
PERFORMER "Various"
TITLE "The Best Piano Music 1"
FILE "Various - The Best Piano Music 1.ape" WAVE
  TRACK 01 AUDIO
    TITLE "Piano Sonata № 14 cis-moll Op 27/2 «Moonlight» – I. Adagio sostenuto"
    PERFORMER "Beethoven"
    INDEX 01 00:00:00
  TRACK 02 AUDIO
    TITLE "Piano Sonata № 14 cis-moll Op 27/2 «Moonlight» – II. Allegretto"
    PERFORMER "Beethoven"
    INDEX 00 06:00:57
    INDEX 01 06:04:00
  TRACK 03 AUDIO
    TITLE "Piano Sonata № 14 cis-moll Op 27/2 «Moonlight» – III. Presto agitato"
    PERFORMER "Beethoven"
    INDEX 00 08:12:12
    INDEX 01 08:15:00
  TRACK 04 AUDIO
    TITLE "Nocturne № 19 e-moll op ph 72/1"
    PERFORMER "Chopin"
    INDEX 00 15:14:32
    INDEX 01 15:20:15
  TRACK 05 AUDIO
    TITLE "Piano Concerto a-moll Op 16 – I. Allegro molto moderato"
    PERFORMER "Grieg"
    INDEX 00 20:04:22
    INDEX 01 20:08:70
  TRACK 06 AUDIO
    TITLE "English Suite № 1 A-Dur BWV 806 – VIII-IX Bourree I & II"
    PERFORMER "Bach"
    INDEX 00 33:41:60
    INDEX 01 33:45:62
  TRACK 07 AUDIO
    TITLE "Piano Concerto № 21 C-Dur KV 467 «Elvira Madigan» – I. Allegro maestoso"
    PERFORMER "Mozart"
    INDEX 00 38:02:37
    INDEX 01 38:07:55
  TRACK 08 AUDIO
    TITLE "Piano Concerto № 21 C-Dur KV 467 «Elvira Madigan» – II. Andante"
    PERFORMER "Mozart"
    INDEX 00 52:39:60
    INDEX 01 52:44:65
  TRACK 09 AUDIO
    TITLE "Piano Concerto № 21 C-Dur KV 467 «Elvira Madigan» – III. Alegro vivace assai"
    PERFORMER "Mozart"
    INDEX 00 58:18:70
    INDEX 01 58:21:27
-
[teatrix.ru].t9886.torrent 
Торрент: Зарегистрирован [ 2015-10-25 20:37 ] · 9A69DDE936F1BDC8E7D3EF10D247DF3A4D5C78B5

Скачать .torrent

Скачать

18 KB

Статус: проверено
Скачан: 0 раз
Размер: 226 MB
terms.php



Быстрый ответ

Имя:

      
Для отправки сообщений необходимо включить JavaScript
Показать сообщения:    

Текущее время: 07-Дек 21:19

Часовой пояс: UTC + 3


Вы можете начинать темы
Вы можете отвечать на сообщения
Вы не можете редактировать свои сообщения
Вы не можете удалять свои сообщения
Вы не можете голосовать в опросах
Вы не можете прикреплять файлы к сообщениям
Вы можете скачивать файлы