(Classical) The Best Piano Music Vol.4 (Beethoven, Brahms, Debussy, Schubert, Scarlatti) (Lang, Tomsic, Murai, Capova; von Pitamic, Nanut) — 1995, APE (image+.cue) lossless


Статистика раздачи [Обновить пиров]
Размер:  220 MB   |    Зарегистрирован:  1 год 1 месяц   |    Скачан:  0 раз

Полного источника не было: Никогда

Личеров:  1  [  0 KB/s  ]   Подробная статистика пиров
 
   
 
 
 

[Цитировать]

The Best Piano Music Vol.4- Жанр: Classical
Страна-производитель диска: Германия
Год издания диска: 1995
Издатель (лейбл): Point Classics
Номер по каталогу: 2688492
CATALOG: 027726884929
Аудио кодек: ape
Тип рипа: image+.cue
Битрейт аудио: lossless
Продолжительность: 01h07'47"
Источник: собственный рип
Наличие сканов в содержимом раздачи: нет-Треклист:
Ludwig van Beethoven
Piano Concerto № 2 B-Dur Op 19
01. I. Allegro con brio [00h14'08"]
02. II. Adagio [00h07'50"]
03. III. Rondo [00h06'06"]
Johannes Brahms
Piano Concerto № 1 d-moll Op 15
04. II. Adagio [00h13'20"]
Claude Debussy
Piano Suite Children's Corner L.113
05. I. Doctor Gradus ad Parnassum [00h02'09"]
06. II. Jimbo's Lullaby [00h03'08"]
07. III. Serenade for the Doll [00h02'16"]
08. IV. The Snow is Dancing [00h02'48"]
09. V. The Llittle Shepherd [00h02'24"]
10. VI. Golliwogg's Cakewalk [00h03'02"]
Franz Schubert
Impromptu № 2 Es-Dur Op 90
11. II. Allegro [00h04'48"]
Domenico Scarlatti
12. Sonata E-Dur L.210 [00h05'49"]-(01-03) Nürnberg Symphony Orchestra, cond. Alexander von Pitamic, Piano – Peter Lang
(04) Radio Symphony Orchestra Ljubljana, cond. Anton Nanut, Piano – Dubravka Tomšič
(05-10) Piano – Jurica Murai
(11) Piano – Sylvia Capová
(12) Piano – Dubravka Tomšič-

EAC log

Exact Audio Copy V0.99 prebeta 5 from 4. May 2009
Отчёт EAC об извлечении, выполненном 26. сентября 2014, 18:01
Various / Best Piano Music 4
Дисковод: PIONEER DVD-RW  DVR-111D   Adapter: 1  ID: 0
Режим чтения                 : Достоверность
Использование точного потока : Да
Отключение кэша аудио        : Да
Использование указателей C2  : Нет
Коррекция смещения при чтении                     : 48
Способность читать области Lead-in и Lead-out     : Нет
Заполнение пропущенных сэмплов тишиной            : Да
Удаление блоков с тишиной в начале и конце        : Нет
При вычислениях CRC использовались нулевые сэмплы : Да
Интерфейс                                         : Установленный внешний ASPI-интерфейс
Выходной формат          : Monkey's Audio (без потерь)
Выбранный битрейт        : Normal Lossless Compression
Качество                 : Высокий
Добавление ID3-тэга      : Нет
Утилита сжатия           : C:\Program Files\Monkey's Audio\MAC.exe
TOC извлечённого CD
     Трек |   Старт  | Длительность | Начальный сектор | Конечный сектор
    ---------------------------------------------------------------------
       1  |  0:00.00 |   14:08.07   |           0      |      63606
       2  | 14:08.07 |    7:49.43   |       63607      |      98824
       3  | 21:57.50 |    6:06.00   |       98825      |     126274
       4  | 28:03.50 |   13:19.72   |      126275      |     186271
       5  | 41:23.47 |    2:09.28   |      186272      |     195974
       6  | 43:33.00 |    3:07.47   |      195975      |     210046
       7  | 46:40.47 |    2:15.38   |      210047      |     220209
       8  | 48:56.10 |    2:47.65   |      220210      |     232799
       9  | 51:44.00 |    2:23.57   |      232800      |     243581
      10  | 54:07.57 |    3:02.10   |      243582      |     257241
      11  | 57:09.67 |    4:47.50   |      257242      |     278816
      12  | 61:57.42 |    5:49.13   |      278817      |     305004
Характеристики диапазона извлечения и сообщения об ошибках
Выбранный диапазон
     Имя файла D:\Музыка lossless\The Best Piano Music 4\Various - Best Piano Music 4.wav
     Пиковый уровень 100.0 %
     Качество диапазона 100.0 %
     CRC теста 63F1B202
     CRC копии 63F1B202
     Копирование... OK
Ошибок не произошло
AccurateRip: сводка
Трек  1  точное извлечение (доверие 1)  [5926CA28]
Трек  2  точное извлечение (доверие 1)  [A1746AED]
Трек  3  точное извлечение (доверие 1)  [BB7E8C11]
Трек  4  точное извлечение (доверие 1)  [FDE66A27]
Трек  5  точное извлечение (доверие 1)  [56396C60]
Трек  6  точное извлечение (доверие 1)  [B06E67DC]
Трек  7  точное извлечение (доверие 1)  [B0FDE8BA]
Трек  8  точное извлечение (доверие 1)  [BB8873E4]
Трек  9  точное извлечение (доверие 1)  [24D13091]
Трек 10  точное извлечение (доверие 1)  [D611653E]
Трек 11  точное извлечение (доверие 1)  [2F6CC0F4]
Трек 12  точное извлечение (доверие 1)  [0346AF36]
Все треки извлечены точно
Конец отчёта

-

CUE

REM GENRE Classical
REM DATE 1995
REM DISCID AF0FE20C
REM COMMENT "ExactAudioCopy v0.99pb5"
PERFORMER "Various"
TITLE "Best Piano Music 4"
FILE "Various - Best Piano Music 4.ape" WAVE
  TRACK 01 AUDIO
    TITLE "Piano Concerto № 2 B-Dur Op 19 – I. Allegro con brio"
    PERFORMER "Beethoven"
    INDEX 01 00:00:00
  TRACK 02 AUDIO
    TITLE "Piano Concerto № 2 B-Dur Op 19 – II. Adagio"
    PERFORMER "Beethoven"
    INDEX 00 14:02:62
    INDEX 01 14:08:07
  TRACK 03 AUDIO
    TITLE "Piano Concerto № 2 B-Dur Op 19 – III. Rondo"
    PERFORMER "Beethoven"
    INDEX 00 21:54:60
    INDEX 01 21:57:50
  TRACK 04 AUDIO
    TITLE "Piano Concerto № 1 d-moll Op 15 – II. Adagio"
    PERFORMER "Brahams"
    INDEX 00 27:56:02
    INDEX 01 28:03:50
  TRACK 05 AUDIO
    TITLE "Children's Corner L.113 – I. Doctor Gradus ad Parnassum"
    PERFORMER "Debussy"
    INDEX 00 41:16:17
    INDEX 01 41:23:47
  TRACK 06 AUDIO
    TITLE "Children's Corner L.113 – II. Jimbo's Lullaby"
    PERFORMER "Debussy"
    INDEX 01 43:33:00
  TRACK 07 AUDIO
    TITLE "Children's Corner L.113 – III. Serenade for the Doll"
    PERFORMER "Debussy"
    INDEX 01 46:40:47
  TRACK 08 AUDIO
    TITLE "Children's Corner L.113 – IV. The Snow is Dancing"
    PERFORMER "Debussy"
    INDEX 01 48:56:10
  TRACK 09 AUDIO
    TITLE "Children's Corner L.113 – V. The Llittle Shepherd"
    PERFORMER "Debussy"
    INDEX 01 51:44:00
  TRACK 10 AUDIO
    TITLE "Children's Corner L.113 – VI. Golliwogg's Cakewalk"
    PERFORMER "Debussy"
    INDEX 01 54:07:57
  TRACK 11 AUDIO
    TITLE "Impromptu № 2 Es-Dur Op 90 – II. Allegro"
    PERFORMER "Schubert"
    INDEX 00 57:02:12
    INDEX 01 57:09:67
  TRACK 12 AUDIO
    TITLE "Sonata E-Dur L.210"
    PERFORMER "Scarlatti"
    INDEX 00 61:49:32
    INDEX 01 61:57:42
-
[teatrix.ru].t9887.torrent 
Торрент: Зарегистрирован [ 2015-10-25 20:37 ] · B8B73B4D97730DB4EEF30A924D6A70F87DFEF256

Скачать .torrent

Скачать

18 KB

Статус: проверено
Скачан: 0 раз
Размер: 220 MB
terms.php



Быстрый ответ

Имя:

      
Для отправки сообщений необходимо включить JavaScript
Показать сообщения:    

Текущее время: 10-Дек 04:07

Часовой пояс: UTC + 3


Вы можете начинать темы
Вы можете отвечать на сообщения
Вы не можете редактировать свои сообщения
Вы не можете удалять свои сообщения
Вы не можете голосовать в опросах
Вы не можете прикреплять файлы к сообщениям
Вы можете скачивать файлы