(Classical) Niccolo Paganini / Henryk Wieniawski — Violin Concertos № 1 & 2 (Op 6 & 22) (Oliver Colbentson, Bruno Zwicker; Hanspeter Gmur, Henry Adolph) — 1994, APE (image+.cue) lossless


Статистика раздачи [Обновить пиров]
Размер:  232 MB   |    Зарегистрирован:  1 год 1 месяц   |    Скачан:  0 раз

Полного источника не было: Никогда

Личеров:  1  [  0 KB/s  ]   Подробная статистика пиров
 
   
 
 
 

[Цитировать]

Violin Concertos № 1 & 2 (Op 6 & 22)- Жанр: Classical
Страна-производитель диска: Германия
Год издания диска: 1994
Издатель (лейбл): Point Classics
Номер по каталогу: 2671502
CATALOG: 027726715025
Композиторы: Niccolò Paganini / Henryk Wieniawski
Аудио кодек: ape
Тип рипа: image+.cue
Битрейт аудио: lossless
Продолжительность: 00h52'16"
Источник: собственный рип
Наличие сканов в содержимом раздачи: нет-Треклист:
Niccolo Paganini
Violin Concerto № 1 D-dur Op 6
01. I. Allegro maestoso [00h17'56"]
02. II. Adagio [00h06'17"]
03. III. Rondo: Allegro spirituoso [00h06'33"]
Süddeutsche Philharmonie, cond. Hanspeter Gmür, Violin – Oliver Colbentson
Henryk Wieniawski
Violin Concerto № 2 d-moll Op 22
04. I. Allegro moderto [00h10'13"]
05. II. Romance: Andante non troppo [00h05'28"]
06. III. Allegro con fuoco – Allegro moderato [00h05'49"]
Münchner Symphonie Orchester, cond. Henry Adolph, Violin – Bruno Zwicker-

EAC log

Exact Audio Copy V0.99 prebeta 5 from 4. May 2009
Отчёт EAC об извлечении, выполненном 25. сентября 2014, 19:26
Paganini Wieniawski / Violin Concertos
Дисковод: MITSUMI CR-486ETE   Adapter: 0  ID: 0
Режим чтения                 : Достоверность
Использование точного потока : Да
Отключение кэша аудио        : Да
Использование указателей C2  : Нет
Коррекция смещения при чтении                     : 6
Способность читать области Lead-in и Lead-out     : Нет
Заполнение пропущенных сэмплов тишиной            : Да
Удаление блоков с тишиной в начале и конце        : Нет
При вычислениях CRC использовались нулевые сэмплы : Да
Интерфейс                                         : Установленный внешний ASPI-интерфейс
Выходной формат          : Monkey's Audio (без потерь)
Выбранный битрейт        : Normal Lossless Compression
Качество                 : Высокий
Добавление ID3-тэга      : Нет
Утилита сжатия           : C:\Program Files\Monkey's Audio\MAC.exe
TOC извлечённого CD
     Трек |   Старт  | Длительность | Начальный сектор | Конечный сектор
    ---------------------------------------------------------------------
       1  |  0:00.00 |   17:55.65   |           0      |      80689
       2  | 17:55.65 |    6:16.42   |       80690      |     108931
       3  | 24:12.32 |    6:33.25   |      108932      |     138431
       4  | 30:45.57 |   10:13.00   |      138432      |     184406
       5  | 40:58.57 |    5:28.10   |      184407      |     209016
       6  | 46:26.67 |    5:48.55   |      209017      |     235171
Характеристики диапазона извлечения и сообщения об ошибках
Выбранный диапазон
     Имя файла D:\Музыка lossless\Paganini Wieniawski Violin Concertos\Paganini Wieniawski - Violin Concertos.wav
     Пиковый уровень 100.0 %
     Качество диапазона 100.0 %
     CRC теста 8C2CFAEB
     CRC копии 8C2CFAEB
     Копирование... OK
Ошибок не произошло
AccurateRip: сводка
Трек  1  точность не определена (достоверность 3)  [53868F25], AccurateRip вернул  [6322A576]
Трек  2  точность не определена (достоверность 3)  [A8AA8AF2], AccurateRip вернул  [4DB4B2E1]
Трек  3  точность не определена (достоверность 3)  [F991FD5B], AccurateRip вернул  [2A87E2E0]
Трек  4  точность не определена (достоверность 3)  [F58609AE], AccurateRip вернул  [3B2C27EF]
Трек  5  точность не определена (достоверность 3)  [EA3D53F8], AccurateRip вернул  [E3686BD1]
Трек  6  точность не определена (достоверность 3)  [FD781FE7], AccurateRip вернул  [4DEFC3A4]
Ни один трек не прошёл проверки на точность
В вашей базе может быть иной вариант штамповки диска
Конец отчёта

-

CUE

REM GENRE Classical
REM DATE 1994
REM DISCID 580C3F06
REM COMMENT "ExactAudioCopy v0.99pb5"
PERFORMER "Paganini Wieniawski"
TITLE "Violin Concertos"
FILE "Paganini Wieniawski - Violin Concertos.ape" WAVE
  TRACK 01 AUDIO
    TITLE "Violin Concerto № 1 D-Dur Op 6 – I. Allegro maestoso"
    PERFORMER "Paganini"
    INDEX 01 00:00:00
  TRACK 02 AUDIO
    TITLE "Violin Concerto № 1 D-Dur Op 6 – II. Adagio"
    PERFORMER "Paganini"
    INDEX 01 17:55:65
  TRACK 03 AUDIO
    TITLE "Violin Concerto № 1 D-Dur Op 6 – III. Rondo: Allegro spirituoso"
    PERFORMER "Paganini"
    INDEX 01 24:12:32
  TRACK 04 AUDIO
    TITLE "Violin Concerto № 2 d-moll Op 22 – I. Allegro moderto"
    PERFORMER "Wieniawski"
    INDEX 00 30:40:20
    INDEX 01 30:45:57
  TRACK 05 AUDIO
    TITLE "Violin Concerto № 2 d-moll Op 22 – II. Romance: Andante non troppo"
    PERFORMER "Wieniawski"
    INDEX 01 40:58:57
  TRACK 06 AUDIO
    TITLE "Violin Concerto № 2 d-moll Op 22 – III. Allegro con fuoco – Allegro moderato"
    PERFORMER "Wieniawski"
    INDEX 01 46:26:67
-
[teatrix.ru].t9888.torrent 
Торрент: Зарегистрирован [ 2015-10-25 20:37 ] · F0676F1DDFA33C212875FB68058EACDC899C809D

Скачать .torrent

Скачать

19 KB

Статус: проверено
Скачан: 0 раз
Размер: 232 MB
terms.php



Быстрый ответ

Имя:

      
Для отправки сообщений необходимо включить JavaScript
Показать сообщения:    

Текущее время: 04-Дек 02:55

Часовой пояс: UTC + 3


Вы можете начинать темы
Вы можете отвечать на сообщения
Вы не можете редактировать свои сообщения
Вы не можете удалять свои сообщения
Вы не можете голосовать в опросах
Вы не можете прикреплять файлы к сообщениям
Вы можете скачивать файлы