(Classical) Ludwig van Beethoven — Symphony № 5 • Piano Concerto № 5 (Op 67 & 73) (Cristina Ortiz; London Symphony Orchestra, Wyn Morris, Sity of London Sinfonia, Richard Hickox) — 1992, APE (image+.cue) lossless


Статистика раздачи [Обновить пиров]
Размер:  272 MB   |    Зарегистрирован:  1 год 1 месяц   |    Скачан:  0 раз

Полного источника не было: Никогда

Личеров:  1  [  0 KB/s  ]   Подробная статистика пиров
 
   
 
 
 

[Цитировать]

Symphony № 5 • Piano Concerto № 5 (Op 67 & 73)- Жанр: Classical
Страна-производитель диска: Швеция
Год издания диска: 1992
Издатель (лейбл): ELAP music
Номер по каталогу: 3241CD
CATALOG: 5708574332415
Композитор: Ludwig van Beethoven
Аудио кодек: ape
Тип рипа: image+.cue
Битрейт аудио: lossless
Продолжительность: 01h12'35"
Источник: собственный рип
Наличие сканов в содержимом раздачи: нет-Треклист:
01. Symphony № 5 c-moll Op 67 [00h32'34"]
London Symphony Orchestra, cond. Wyn Morris
02. Symphony № 3 Es-Dur Op 55 «Eroica» – II. Marcia funebre: Adiago assai [00h02'38"]
Süddeutsche Philharmonie, cond. Alberto Delande
03. Piano Сoncerto № 5 Es-Dur «Emperor» [00h37'22"]
Sity of London Sinfonia, cond. Richard Hickox, Piano – Cristina Ortiz-

EAC log

Exact Audio Copy V0.99 prebeta 5 from 4. May 2009
Отчёт EAC об извлечении, выполненном 20. сентября 2014, 21:30
Beethoven / Symphony 5 & Piano Сoncerto 5
Дисковод: PIONEER DVD-RW  DVR-111D   Adapter: 1  ID: 1
Режим чтения                 : Достоверность
Использование точного потока : Да
Отключение кэша аудио        : Да
Использование указателей C2  : Нет
Коррекция смещения при чтении                     : 48
Способность читать области Lead-in и Lead-out     : Нет
Заполнение пропущенных сэмплов тишиной            : Да
Удаление блоков с тишиной в начале и конце        : Нет
При вычислениях CRC использовались нулевые сэмплы : Да
Интерфейс                                         : Установленный внешний ASPI-интерфейс
Выходной формат          : Monkey's Audio (без потерь)
Выбранный битрейт        : Normal Lossless Compression
Качество                 : Высокий
Добавление ID3-тэга      : Нет
Утилита сжатия           : C:\Program Files\Monkey's Audio\MAC.exe
TOC извлечённого CD
     Трек |   Старт  | Длительность | Начальный сектор | Конечный сектор
    ---------------------------------------------------------------------
       1  |  0:00.00 |   32:34.17   |           0      |     146566
       2  | 32:34.17 |    2:38.10   |      146567      |     158426
       3  | 35:12.27 |   37:22.35   |      158427      |     326611
Характеристики диапазона извлечения и сообщения об ошибках
Выбранный диапазон
     Имя файла D:\Музыка lossless\Beethoven Symphony 5 & Piano Сoncerto 5 ELAP\Beethoven - Symphony 5 & Piano Сoncerto 5.wav
     Пиковый уровень 97.7 %
     Качество диапазона 100.0 %
     CRC теста 1296B36A
     CRC копии 1296B36A
     Копирование... OK
Ошибок не произошло
AccurateRip: сводка
Трек  1  точное извлечение (доверие 1)  [DE9EA8CF]
Трек  2  точное извлечение (доверие 1)  [A856875A]
Трек  3  точное извлечение (доверие 1)  [2526C59D]
Все треки извлечены точно
Конец отчёта

-

CUE

REM GENRE Classical
REM DATE 1992
REM DISCID 1F110203
REM COMMENT "ExactAudioCopy v0.99pb5"
PERFORMER "Beethoven"
TITLE "Symphony 5 & Piano Сoncerto 5"
FILE "Beethoven - Symphony 5 & Piano Сoncerto 5.ape" WAVE
  TRACK 01 AUDIO
    TITLE "Symphony № 5 c-moll Op 67"
    PERFORMER "Beethoven"
    INDEX 01 00:00:00
  TRACK 02 AUDIO
    TITLE "Symphony № 3 Es-Dur Op 55 «Eroica» – II. Marcia funebre: Adiago assai"
    PERFORMER "Beethoven"
    INDEX 00 32:28:35
    INDEX 01 32:34:17
  TRACK 03 AUDIO
    TITLE "Piano Сoncerto № 5 Es-Dur «Emperor»"
    PERFORMER "Beethoven"
    INDEX 00 35:07:42
    INDEX 01 35:12:27
-
[teatrix.ru].t9890.torrent 
Торрент: Зарегистрирован [ 2015-10-25 20:37 ] · EFADB937BEB575E8775B921E357016A6CF253CAA

Скачать .torrent

Скачать

11 KB

Статус: проверено
Скачан: 0 раз
Размер: 272 MB
terms.php



Быстрый ответ

Имя:

      
Для отправки сообщений необходимо включить JavaScript
Показать сообщения:    

Текущее время: 11-Дек 09:11

Часовой пояс: UTC + 3


Вы можете начинать темы
Вы можете отвечать на сообщения
Вы не можете редактировать свои сообщения
Вы не можете удалять свои сообщения
Вы не можете голосовать в опросах
Вы не можете прикреплять файлы к сообщениям
Вы можете скачивать файлы