(Classical) Кюннеке – Фортепианный концерт № 1; Мендельсон – Блестящее каприччио, Серенада и аллегро / Kunneke – Piano Concerto No. 1; Mendelssohn – Capriccio brillant, Serenade & Allegro (Wirtz, Kamirski, Smola) - 1997, FLAC (image+.cue) lossles


Статистика раздачи [Обновить пиров]
Размер:  285 MB   |    Зарегистрирован:  1 год 1 месяц   |    Скачан:  2 раза

Полного источника не было: 4 месяца

Личеров:  1  [  0 KB/s  ]   Подробная статистика пиров
 
   
 
 
 

[Цитировать]

Кюннеке – Фортепианный концерт № 1; Мендельсон – Блестящее каприччио, Серенада и аллегро / Künneke – Piano Concerto No. 1; Mendelssohn – Capriccio brillant, Serenade & Allegro gioioso (giocoso), Opp. 22 & 43 (Tiny Wirtz, Włodzimierz Kamirski, Emmerich Smola)
Жанр: Classical
Страна-производитель диска: Австрия
Год издания диска: 1997
Издатель (лейбл): KOCH International GmbH (Koch Schwann)
Номер по каталогу: 3-1372-2
Дата записи: 14 мая 1982 г. (1 — 3); 19 декабря 1979 г. (4); 3 декабря 1973 г. (5).
Аудиокодек: FLAC
Тип рипа: image+.cue
Битрейт аудио: lossless
Продолжительность: 01:00:11
Источник: odeonmusic
Наличие сканов в содержимом раздачи: да
Треклист:
Эдуард Кюннеке (1885 — 1953).
Фортепианный концерт № 1 As-dur, op. 36.
01. I. Allegro, un poco moderato [16:25].
02. II. Moderato [07:20].
03. III. Lebhaft [10:15].
Якоб Людвиг Феликс Мендельсон Бартольди (1809 — 1847).
Серенада и Allegro gioioso h-moll (D-dur) для фортепиано с оркестром, op. 43 (1838).
04. Andante. — Allegro giojoso [13:45].
Блестящее каприччио h-moll для фортепиано с оркестром, op. 22 (1832).
05. Andante. — Allegro con fuoco [12:25].
Исполнители:
Tiny Wirtz (фортепиано).
Rundfunkorchester des Südwestfunks.
Дирижер Włodzimierz Kamirski (1 — 3).
Дирижер Emmerich Smola (4 — 5).

Лог создания рипа

Exact Audio Copy V1.0 beta 3 from 29. August 2011
EAC extraction logfile from 11. March 2014, 18:53
Tiny Wirtz / Künneke - Piano Concerto; Mendelssohn – Works for Piano and Orchestra - Tiny Wirtz
Used drive : TSSTcorpCDDVDW SH-222BB Adapter: 2 ID: 1
Read mode : SecureUtilize accurate stream : YesDefeat audio cache : YesMake use of C2 pointers : No
Read offset correction : 6Overread into Lead-In and Lead-Out : NoFill up missing offset samples with silence : YesDelete leading and trailing silent blocks : NoNull samples used in CRC calculations : YesUsed interface : Native Win32 interface for Win NT & 2000
Used output format : User Defined EncoderSelected bitrate : 896 kBit/sQuality : HighAdd ID3 tag : NoCommand line compressor : C:\Program Files\Exact Audio Copy\FLAC\FLAC.EXEAdditional command line options : -8 -V -T "TITLE=%title%" -T "ARTIST=%artist%" -T "ALBUMARTIST=%albumartist%" -T "ALBUM=%albumtitle%" -T "DATE=%year%" -T "TRACKNUMBER=%tracknr%" -T "TRACKTOTAL=%numtracks%" -T "GENRE=%genre%" -T "COMMENT=%comment%" -T "PERFORMER=%albuminterpret%" -T "COMPOSER=%composer%" %source% -o %dest%
TOC of the extracted CD
Track | Start | Length | Start sector | End sector --------------------------------------------------------- 1 | 0:00.00 | 16:29.05 | 0 | 74179 2 | 16:29.05 | 7:26.67 | 74180 | 107696 3 | 23:55.72 | 10:25.60 | 107697 | 154631 4 | 34:21.57 | 13:53.45 | 154632 | 217151 5 | 48:15.27 | 12:23.23 | 217152 | 272899
Range status and errors
Selected range
Filename E:\3000\[3370] Künneke – Piano Concerto; Mendelssohn – Works for Piano and Orchestra – Tiny Wirtz\Künneke - Piano Concerto; Mendelssohn – Works for Piano and Orchestra - Tiny Wirtz.wav
Peak level 88.7 % Extraction speed 6.6 X Range quality 100.0 % Test CRC 716DAA12 Copy CRC 716DAA12 Copy OK
No errors occurred
AccurateRip summary
Track 1 not present in databaseTrack 2 not present in databaseTrack 3 not present in databaseTrack 4 not present in databaseTrack 5 not present in database
None of the tracks are present in the AccurateRip database
End of status report
==== Log checksum B6E87EF406DC216229D483D29B84EACC7C06DEA47386E1B55B4651116CF8D344 ====

Содержание индексной карты (.CUE)

REM GENRE ClassicalREM DATE 1997REM DISCID 490E3605REM COMMENT "ExactAudioCopy v1.0b3"CATALOG 0099923137221PERFORMER "Tiny Wirtz"TITLE "Kunneke – Piano Concerto; Mendelssohn – Works for piano and orchestra – Tiny Wirtz"FILE "Kunneke – Piano Concerto; Mendelssohn – Works for piano and orchestra – Tiny Wirtz.flac" WAVE TRACK 01 AUDIO TITLE "Kunneke - Piano Concerto No. 1 in A flat major, Op. 36 - I. Allegro, un poco moderato" PERFORMER "Tiny Wirtz & Wlodzimierz Kamirski" ISRC DEC988200040 INDEX 01 00:00:00 TRACK 02 AUDIO TITLE "Kunneke - Piano Concerto No. 1 in A flat major, Op. 36 - II. Moderato" PERFORMER "Tiny Wirtz & Wlodzimierz Kamirski" ISRC DEC988200041 INDEX 01 16:29:05 TRACK 03 AUDIO TITLE "Kunneke - Piano Concerto No. 1 in A flat major, Op. 36 - III. Lebhaft" PERFORMER "Tiny Wirtz & Wlodzimierz Kamirski" ISRC DEC988200042 INDEX 01 23:55:72 TRACK 04 AUDIO TITLE "Mendelssohn - Serenade & Allegro gioioso, Op. 43" PERFORMER "Tiny Wirtz & Emmerich Smola" ISRC DEC987900027 INDEX 00 34:14:27 INDEX 01 34:21:57 TRACK 05 AUDIO TITLE "Mendelssohn - Capriccio brillant, Op. 22" PERFORMER "Tiny Wirtz & Emmerich Smola" ISRC DEC987300008 INDEX 00 48:07:67 INDEX 01 48:15:27
-Есть некоторые сомнения, следует ли писать имя Влодзимежа (Владимира) Камирского с польским перечеркнутым ł, или он германизировал его орфографию.
[teatrix.ru].t9891.torrent 
Торрент: Зарегистрирован [ 2015-10-25 20:37 ] · DA96CE76884A4293616A69CB2AD2F380DDA06DD4

Скачать .torrent

Скачать

13 KB

Статус: проверено
Скачан: 2 раз
Размер: 285 MB
terms.php



Быстрый ответ

Имя:

      
Для отправки сообщений необходимо включить JavaScript
Показать сообщения:    

Текущее время: 05-Дек 11:26

Часовой пояс: UTC + 3


Вы можете начинать темы
Вы можете отвечать на сообщения
Вы не можете редактировать свои сообщения
Вы не можете удалять свои сообщения
Вы не можете голосовать в опросах
Вы не можете прикреплять файлы к сообщениям
Вы можете скачивать файлы