(Classical) Felix Mendelssohn — Piano Concertos № 1 & 2 • String Symphony № 10 (Op 25 & 40, MWV N 10) (Ida Cernecka; Oliver Dohnanyi, Bohdan Warchal) (CD2/2) — 1996, APE (image+.cue) lossless


Статистика раздачи [Обновить пиров]
Размер:  201 MB   |    Зарегистрирован:  1 год 1 месяц   |    Скачан:  0 раз
Сидов:  1  [  0 KB/s  ]   Личеров:  1  [  0 KB/s  ]   Подробная статистика пиров
 
   
 
 
 

[Цитировать]

Piano Concertos № 1 & 2 • String Symphony № 10 (Op 25 & 40, MWV N 10)- Жанр: Classical
Страна-производитель диска: Чехия
Год издания диска: 1996
Издатель (лейбл): Selected Sound Carrier (Prestige classics)
Номер по каталогу: CD 1730.2073-2
CATALOG: 7619929203428
Композитор: Felix Mendelssohn-Bartholdy
Аудио кодек: ape
Тип рипа: image+.cue
Битрейт аудио: lossless
Продолжительность: 00h54'57"
Источник: собственный рип
Наличие сканов в содержимом раздачи: да-Треклист:
Piano Concerto № 1 g-moll Op 25
01. I. Molto allegro con fuoco [00h08'19"]
02. II. Andante [00h06'05"]
03. III. Presto [00h06'38"]
Piano Concerto № 2 d-moll Op 40
04. I. Allegro appassinato [00h09'50"]
05. II. Adagio. Molto sostenuto [00h06'18"]
06. III. Finale. Presto scherzando [00h06'55"]
Slovak Philharmonic Orchestra, cond. Oliver Dohnányi, Piano – Ida Cernecka
07. String Symphony № 10 h-moll MWV N 10 – Adagio (attaca) – Allegro [00h10'52"]
Slovak Chamber Orchestra, cond. Bohdan Warchal-

EAC log

Exact Audio Copy V0.99 prebeta 5 from 4. May 2009
Отчёт EAC об извлечении, выполненном 20. сентября 2014, 0:50
Mendelssohn / Piano Concertos & String Symphony
Дисковод: PIONEER DVD-RW  DVR-111D   Adapter: 1  ID: 1
Режим чтения                 : Достоверность
Использование точного потока : Да
Отключение кэша аудио        : Да
Использование указателей C2  : Нет
Коррекция смещения при чтении                     : 48
Способность читать области Lead-in и Lead-out     : Нет
Заполнение пропущенных сэмплов тишиной            : Да
Удаление блоков с тишиной в начале и конце        : Нет
При вычислениях CRC использовались нулевые сэмплы : Да
Интерфейс                                         : Установленный внешний ASPI-интерфейс
Выходной формат          : Monkey's Audio (без потерь)
Выбранный битрейт        : Normal Lossless Compression
Качество                 : Высокий
Добавление ID3-тэга      : Нет
Утилита сжатия           : C:\Program Files\Monkey's Audio\MAC.exe
TOC извлечённого CD
     Трек |   Старт  | Длительность | Начальный сектор | Конечный сектор
    ---------------------------------------------------------------------
       1  |  0:00.00 |    8:19.32   |           0      |      37456
       2  |  8:19.32 |    6:04.40   |       37457      |      64796
       3  | 14:23.72 |    6:37.55   |       64797      |      94626
       4  | 21:01.52 |    9:49.55   |       94627      |     138856
       5  | 30:51.32 |    6:18.28   |      138857      |     167234
       6  | 37:09.60 |    6:55.30   |      167235      |     198389
       7  | 44:05.15 |   10:52.12   |      198390      |     247301
Характеристики диапазона извлечения и сообщения об ошибках
Выбранный диапазон
     Имя файла D:\Музыка lossless\Mendelssohn Piano Concertos & String Symphony\Mendelssohn - Piano Concertos & String Symphony.wav
     Пиковый уровень 96.1 %
     Качество диапазона 99.9 %
     CRC теста A286F6CA
     CRC копии A286F6CA
     Копирование... OK
Ошибок не произошло
AccurateRip: сводка
Трек  1  точность не определена (достоверность 5)  [F10FE8A2], AccurateRip вернул [285D4067]
Трек  2  точность не определена (достоверность 5)  [9772CE4A], AccurateRip вернул [1A0A243A]
Трек  3  точность не определена (достоверность 5)  [CD5FFC8B], AccurateRip вернул [E08C0C65]
Трек  4  точность не определена (достоверность 5)  [F8C76300], AccurateRip вернул [342C856A]
Трек  5  точность не определена (достоверность 5)  [324BA3BE], AccurateRip вернул [F6877698]
Трек  6  точность не определена (достоверность 5)  [95A14AEF], AccurateRip вернул [C2E88734]
Трек  7  точность не определена (достоверность 5)  [C53114AE], AccurateRip вернул [A38504FB]
Ни один трек не прошёл проверки на точность
В вашей базе может быть иной вариант штамповки диска
Конец отчёта

-

CUE

REM GENRE Classical
REM DATE 1996
REM DISCID 530CE107
REM COMMENT "ExactAudioCopy v0.99pb5"
PERFORMER "Mendelssohn"
TITLE "Piano Concertos & String Symphony"
FILE "Mendelssohn - Piano Concertos & String Symphony.ape" WAVE
  TRACK 01 AUDIO
    TITLE "Piano Concerto № 1 g-moll Op 25 – I. Molto allegro con fuoco"
    PERFORMER "Mendelssohn"
    INDEX 01 00:00:00
  TRACK 02 AUDIO
    TITLE "Piano Concerto № 1 g-moll Op 25 – II. Andante"
    PERFORMER "Mendelssohn"
    INDEX 01 08:19:32
  TRACK 03 AUDIO
    TITLE "Piano Concerto № 1 g-moll Op 25 – III. Presto"
    PERFORMER "Mendelssohn"
    INDEX 01 14:23:72
  TRACK 04 AUDIO
    TITLE "Piano Concerto № 2 d-moll Op 40 – I. Allegro appassinato"
    PERFORMER "Mendelssohn"
    INDEX 00 20:55:17
    INDEX 01 21:01:52
  TRACK 05 AUDIO
    TITLE "Piano Concerto № 2 d-moll Op 40 – II. Adagio. Molto sostenuto"
    PERFORMER "Mendelssohn"
    INDEX 01 30:51:32
  TRACK 06 AUDIO
    TITLE "Piano Concerto № 2 d-moll Op 40 – III. Finale. Presto scherzando"
    PERFORMER "Mendelssohn"
    INDEX 01 37:09:60
  TRACK 07 AUDIO
    TITLE "String Symphony № 10 h-moll MWV N 10 – Adagio (attaca) – Allegro"
    PERFORMER "Mendelssohn"
    INDEX 00 43:58:50
    INDEX 01 44:05:15
-
[teatrix.ru].t9892.torrent 
Торрент: Зарегистрирован [ 2015-10-25 20:37 ] · C2435F54C4719232A886E696E91DFA83469135F2

Скачать .torrent

Скачать

16 KB

Статус: проверено
Скачан: 0 раз
Размер: 201 MB
terms.php



Быстрый ответ

Имя:

      
Для отправки сообщений необходимо включить JavaScript
Показать сообщения:    

Текущее время: 05-Дек 01:21

Часовой пояс: UTC + 3


Вы можете начинать темы
Вы можете отвечать на сообщения
Вы не можете редактировать свои сообщения
Вы не можете удалять свои сообщения
Вы не можете голосовать в опросах
Вы не можете прикреплять файлы к сообщениям
Вы можете скачивать файлы