(Classical) Шопен–Таузиг – Фортепианный концерт № 1; Юзеф Венявский – Концерт / Chopin–Tausig & Jozef Wieniawski – Piano Concertos (Setrak, Wojciech Rajski) - 1987, FLAC (image+.cue) lossless


Статистика раздачи [Обновить пиров]
Размер:  263 MB   |    Зарегистрирован:  1 год 1 месяц   |    Скачан:  0 раз

Полного источника не было: Никогда

Личеров:  1  [  0 KB/s  ]   Подробная статистика пиров
 
   
 
 
 

[Цитировать]

Шопен–Таузиг – Фортепианный концерт № 1; Юзеф Венявский – Концерт / Chopin–Tausig & Józef Wieniawski – Piano Concertos (Setrak, Wojciech Rajski)
Жанр: Classical
Страна-производитель диска: ФРГ
Год издания диска: 1987
Издатель (лейбл): Le Chant du Monde & harmonia mundi; wifon
Номер по каталогу: LDC 278 902; CM 201; WIFON 001.
Дата записи: 4 — 7 июня 1987 г., Быдгощ.
Аудиокодек: FLAC
Тип рипа: image+.cue
Битрейт аудио: lossless
Продолжительность: 01:11:42
Источник: odeonmusic
Наличие сканов в содержимом раздачи: да
Треклист:
Фредерик Шопен (1810 — 1849).
Карл (Кароль) Таузиг (1841 — 1871).
Фортепианный концерт № 1 e-moll, op. 11 (1830), редакция Карла Таузига.
01. I. Allegro maestoso [17:40].
02. II. Romance. Larghetto [11:40].
03. III. Rondo. Vivace [10:20].
Юзеф Венявский (1837 — 1912).
Фортепианный концерт g-moll, op. 20 (ок. 1858; первое исполнение 1859; опубл. 1860/1873?).
04. I. Allegro moderato [14:50].
05. II. Andante [08:12].
06. III. Allegro molto vivace [08:35].
Исполнители:
Setrak (фортепиано).
Orkiestra Symfoniczna Filharmonii Bałtyckiej.
Дирижер Wojciech Rajski.

Лог создания рипа

Exact Audio Copy V1.0 beta 3 from 29. August 2011
EAC extraction logfile from 24. January 2012, 22:16
Setrak / Chopin-Tausig, Wienawski - Piano Concertos - Setrak
Used drive : HL-DT-STDVDRAM GSA-H10A Adapter: 0 ID: 0
Read mode : SecureUtilize accurate stream : YesDefeat audio cache : YesMake use of C2 pointers : No
Read offset correction : 667Overread into Lead-In and Lead-Out : NoFill up missing offset samples with silence : YesDelete leading and trailing silent blocks : NoNull samples used in CRC calculations : YesUsed interface : Native Win32 interface for Win NT & 2000
Used output format : User Defined EncoderSelected bitrate : 1024 kBit/sQuality : HighAdd ID3 tag : NoCommand line compressor : C:\Program Files\Exact Audio Copy\Flac\flac.exeAdditional command line options : -8 -V -T "TITLE=%title%" -T "ARTIST=%artist%" -T "ALBUMARTIST=%albumartist%" -T "ALBUM=%albumtitle%" -T "DATE=%year%" -T "TRACKNUMBER=%tracknr%" -T "TRACKTOTAL=%numtracks%" -T "GENRE=%genre%" -T "COMMENT=%comment%" -T "PERFORMER=%albuminterpret%" -T "COMPOSER=%composer%" %source% -o %dest%
TOC of the extracted CD
Track | Start | Length | Start sector | End sector --------------------------------------------------------- 1 | 0:00.00 | 17:42.42 | 0 | 79691 2 | 17:42.42 | 11:44.48 | 79692 | 132539 3 | 29:27.15 | 10:30.35 | 132540 | 179824 4 | 39:57.50 | 14:53.55 | 179825 | 246854 5 | 54:51.30 | 8:15.27 | 246855 | 284006 6 | 63:06.57 | 8:34.73 | 284007 | 322629
Range status and errors
Selected range
Filename F:\Ripped general\[0187] Chopin-Tausig, Wienawski - Piano Concertos - Setrak\Setrak - Chopin-Tausig, Wienawski - Piano Concertos - Setrak.wav
Peak level 67.2 % Extraction speed 7.5 X Range quality 99.9 % Test CRC C89A2FFC Copy CRC C89A2FFC Copy OK
No errors occurred
AccurateRip summary
Track 1 accurately ripped (confidence 1) [A3D94A00] (AR v1)Track 2 accurately ripped (confidence 1) [29CDA290] (AR v1)Track 3 accurately ripped (confidence 1) [0B2C9BDA] (AR v1)Track 4 accurately ripped (confidence 1) [73A6C2FE] (AR v1)Track 5 accurately ripped (confidence 1) [0176CAFC] (AR v1)Track 6 accurately ripped (confidence 1) [1CA404F2] (AR v1)
All tracks accurately ripped
End of status report

Содержание индексной карты (.CUE)

REM GENRE ClassicalREM DATE 1987REM DISCID 6610CD06REM COMMENT "ExactAudioCopy v1.0b3"PERFORMER "Setrak & Wojciech Rajski"TITLE "Chopin-Tausig & J. Wieniawski – Piano Concertos – Setrak, Rajski"FILE "Chopin-Tausig & J. Wieniawski – Piano Concertos – Setrak, Rajski.flac" WAVE TRACK 01 AUDIO TITLE "Chopin-Tausig - Piano Concerto No. 1 in E minor, Op. 11 - I. Allegro maestoso" PERFORMER "Setrak & Wojciech Rajski" INDEX 01 00:00:00 TRACK 02 AUDIO TITLE "Chopin-Tausig - Piano Concerto No. 1 in E minor, Op. 11 - II. Romance. Larghetto" PERFORMER "Setrak & Wojciech Rajski" INDEX 00 17:40:42 INDEX 01 17:42:42 TRACK 03 AUDIO TITLE "Chopin-Tausig - Piano Concerto No. 1 in E minor, Op. 11 - III. Rondo. Vivace" PERFORMER "Setrak & Wojciech Rajski" INDEX 00 29:25:17 INDEX 01 29:27:15 TRACK 04 AUDIO TITLE "Josef Wieniawski - Piano Concerto in G minor, Op. 20 - I. Allegro moderato" PERFORMER "Setrak & Wojciech Rajski" INDEX 00 39:50:52 INDEX 01 39:57:50 TRACK 05 AUDIO TITLE "Josef Wieniawski - Piano Concerto in G minor, Op. 20 - II. Andante" PERFORMER "Setrak & Wojciech Rajski" INDEX 00 54:48:15 INDEX 01 54:51:30 TRACK 06 AUDIO TITLE "Josef Wieniawski - Piano Concerto in G minor, Op. 20 - III. Allegro molto vivace" PERFORMER "Setrak & Wojciech Rajski" INDEX 00 63:03:10 INDEX 01 63:06:57
[teatrix.ru].t9893.torrent 
Торрент: Зарегистрирован [ 2015-10-25 20:37 ] · 4E9631548B6B68A478749283225BA22E10CA59BF

Скачать .torrent

Скачать

12 KB

Статус: проверено
Скачан: 0 раз
Размер: 263 MB
terms.php



Быстрый ответ

Имя:

      
Для отправки сообщений необходимо включить JavaScript
Показать сообщения:    

Текущее время: 09-Дек 01:09

Часовой пояс: UTC + 3


Вы можете начинать темы
Вы можете отвечать на сообщения
Вы не можете редактировать свои сообщения
Вы не можете удалять свои сообщения
Вы не можете голосовать в опросах
Вы не можете прикреплять файлы к сообщениям
Вы можете скачивать файлы