(Classical) Antonio Vivaldi — Le quattro stagioni • Sinfonia R.719 • Concerto R.158 (Vienna Philharmonic Orchestra, Lorin Maazel) — 1995, APE (image+.cue) lossless


Статистика раздачи [Обновить пиров]
Размер:  279 MB   |    Зарегистрирован:  1 год 1 месяц   |    Скачан:  0 раз

Полного источника не было: Никогда

 
   
 
 
 

[Цитировать]

Le quattro stagioni • Sinfonia R.719 • Concerto R.158- Жанр: Classical
Страна-производитель диска: Великобритания
Год издания диска: 1995
Издатель (лейбл): Karussell International / Belart
Номер по каталогу: 461 105-2 10
Композитор: Antonio Vivaldi
Аудио кодек: ape
Тип рипа: image+.cue
Битрейт аудио: lossless
Продолжительность: 01h02'37"
Источник: собственный рип
Наличие сканов в содержимом раздачи: нет-Треклист:
Concerto E-Dur R.269 «Spring»
01. I. Allegro [00h03'34"]
02. II. Largo e pianissimo sempre [00h02'53"]
03. III. Pastoral dance: Allegro [00h04'32"]
Concerto g-moll R.315 «Summer»
04. I. Allegro non molto [00h05'56"]
05. II. Adagio – Presto [00h02'25"]
06. III. Presto [00h03'07"]
Concerto F-Dur R.293 «Autumn»
07. I. Allegro [00h05'29"]
08. II. Adagio [00h02'17"]
09. III. Allegro [00h03'36"]
Concerto f-moll R.297 «Winter»
10. I. Allegro non molto [00h03'44"]
11. II. Largo [00h02'21"]
12. III. Allegro [00h03'56"]
Sinfonia C-Dur R.719
13. I. Allegro molto [00h05'17"]
14. II. Larghetto [00h03'11"]
15. III. Allegro [00h01'37"]
Concerto A-Dur R.158
16. I. Allegro molto [00h02'48"]
17. II. Andante [00h02'47"]
18. III. Allegro [00h03'05"]
Vienna Philharmonic Orchestra – cond. Lorin Maazel-

EAC log

Exact Audio Copy V0.99 prebeta 5 from 4. May 2009
Отчёт EAC об извлечении, выполненном 19. сентября 2014, 19:53
Vivaldi / The Four Seasons
Дисковод: MITSUMI CR-486ETE   Adapter: 0  ID: 0
Режим чтения                 : Достоверность
Использование точного потока : Да
Отключение кэша аудио        : Да
Использование указателей C2  : Нет
Коррекция смещения при чтении                     : 6
Способность читать области Lead-in и Lead-out     : Нет
Заполнение пропущенных сэмплов тишиной            : Да
Удаление блоков с тишиной в начале и конце        : Нет
При вычислениях CRC использовались нулевые сэмплы : Да
Интерфейс                                         : Установленный внешний ASPI-интерфейс
Выходной формат          : Monkey's Audio (без потерь)
Выбранный битрейт        : Normal Lossless Compression
Качество                 : Высокий
Добавление ID3-тэга      : Нет
Утилита сжатия           : C:\Program Files\Monkey's Audio\MAC.exe
TOC извлечённого CD
     Трек |   Старт  | Длительность | Начальный сектор | Конечный сектор
    ---------------------------------------------------------------------
       1  |  0:00.30 |    3:33.50   |          30      |      16054
       2  |  3:34.05 |    2:53.20   |       16055      |      29049
       3  |  6:27.25 |    4:32.35   |       29050      |      49484
       4  | 10:59.60 |    5:55.65   |       49485      |      76174
       5  | 16:55.50 |    2:25.10   |       76175      |      87059
       6  | 19:20.60 |    3:06.70   |       87060      |     101079
       7  | 22:27.55 |    5:29.15   |      101080      |     125769
       8  | 27:56.70 |    2:17.35   |      125770      |     136079
       9  | 30:14.30 |    3:36.35   |      136080      |     152314
      10  | 33:50.65 |    3:44.05   |      152315      |     169119
      11  | 37:34.70 |    2:21.00   |      169120      |     179694
      12  | 39:55.70 |    3:56.35   |      179695      |     197429
      13  | 43:52.30 |    5:17.30   |      197430      |     221234
      14  | 49:09.60 |    3:10.50   |      221235      |     235534
      15  | 52:20.35 |    1:36.55   |      235535      |     242789
      16  | 53:57.15 |    2:48.20   |      242790      |     255409
      17  | 56:45.35 |    2:46.70   |      255410      |     267929
      18  | 59:32.30 |    3:04.55   |      267930      |     281784
Характеристики диапазона извлечения и сообщения об ошибках
Выбранный диапазон
     Имя файла D:\Музыка lossless\Vivaldi The Four Seasons Maazel\Vivaldi - The Four  Seasons.wav
     Пиковый уровень 95.7 %
     Качество диапазона 99.9 %
     CRC теста 8EC5A32A
     CRC копии 8EC5A32A
     Копирование... OK
Ошибок не произошло
AccurateRip: сводка
Трек  1  точное извлечение (доверие 1)  [22C375CB]
Трек  2  точное извлечение (доверие 1)  [FB8CD97A]
Трек  3  точность не определена (достоверность 1)  [2D899398], AccurateRip вернул  [E53D0FAC]
Трек  4  точное извлечение (доверие 1)  [57BB04ED]
Трек  5  точное извлечение (доверие 1)  [23CDDDFA]
Трек  6  точное извлечение (доверие 1)  [50C40EED]
Трек  7  точное извлечение (доверие 1)  [76A4161E]
Трек  8  точное извлечение (доверие 1)  [F687EDA6]
Трек  9  точное извлечение (доверие 1)  [AC32DFBC]
Трек 10  точное извлечение (доверие 1)  [0E442D2F]
Трек 11  точное извлечение (доверие 1)  [0FD8F893]
Трек 12  точное извлечение (доверие 1)  [009E160F]
Трек 13  точное извлечение (доверие 1)  [5455F698]
Трек 14  точное извлечение (доверие 1)  [50B5AEF7]
Трек 15  точное извлечение (доверие 1)  [64EEF987]
Трек 16  точное извлечение (доверие 1)  [56FBDFFB]
Трек 17  точное извлечение (доверие 1)  [BBBA40C1]
Трек 18  точное извлечение (доверие 1)  [93829AB3]
17 трек(и) скопированы точно
1 трек(и) не удалось проверить на точность
Некоторые треки не прошли проверку на точность
Конец отчёта

-

CUE

REM GENRE Classical
REM DATE 1995
REM DISCID FD0EAD12
REM COMMENT "ExactAudioCopy v0.99pb5"
PERFORMER "Vivaldi"
TITLE "The Four Seasons"
FILE "Vivaldi - The Four Seasons.ape" WAVE
  TRACK 01 AUDIO
    TITLE "Concerto E-Dur R.269 «Spring» – I. Allegro"
    PERFORMER "Vivaldi"
    INDEX 00 00:00:00
    INDEX 01 00:00:30
  TRACK 02 AUDIO
    TITLE "Concerto E-Dur R.269 «Spring» – II. Largo e pianissimo sempre"
    PERFORMER "Vivaldi"
    INDEX 00 03:31:05
    INDEX 01 03:34:05
  TRACK 03 AUDIO
    TITLE "Concerto E-Dur R.269 «Spring» – III. Pastoral dance: Allegro"
    PERFORMER "Vivaldi"
    INDEX 00 06:26:20
    INDEX 01 06:27:25
  TRACK 04 AUDIO
    TITLE "Concerto g-moll R.315 «Summer» – I. Allegro non molto"
    PERFORMER "Vivaldi"
    INDEX 00 10:54:10
    INDEX 01 10:59:60
  TRACK 05 AUDIO
    TITLE "Concerto g-moll R.315 «Summer» – II. Adagio – Presto"
    PERFORMER "Vivaldi"
    INDEX 00 16:52:65
    INDEX 01 16:55:50
  TRACK 06 AUDIO
    TITLE "Concerto g-moll R.315 «Summer» – III. Presto"
    PERFORMER "Vivaldi"
    INDEX 01 19:20:60
  TRACK 07 AUDIO
    TITLE "Concerto F-Dur R.293 «Autumn» – I. Allegro"
    PERFORMER "Vivaldi"
    INDEX 00 22:22:30
    INDEX 01 22:27:55
  TRACK 08 AUDIO
    TITLE "Concerto F-Dur R.293 «Autumn» – II. Adagio"
    PERFORMER "Vivaldi"
    INDEX 00 27:54:70
    INDEX 01 27:56:70
  TRACK 09 AUDIO
    TITLE "Concerto F-Dur R.293 «Autumn» – III. Allegro"
    PERFORMER "Vivaldi"
    INDEX 01 30:14:30
  TRACK 10 AUDIO
    TITLE "Concerto f-moll R.297 «Winter» – I. Allegro non molto"
    PERFORMER "Vivaldi"
    INDEX 00 33:45:15
    INDEX 01 33:50:65
  TRACK 11 AUDIO
    TITLE "Concerto f-moll R.297 «Winter» – II. Largo"
    PERFORMER "Vivaldi"
    INDEX 00 37:32:70
    INDEX 01 37:34:70
  TRACK 12 AUDIO
    TITLE "Concerto f-moll R.297 «Winter» – III. Allegro"
    PERFORMER "Vivaldi"
    INDEX 00 39:52:70
    INDEX 01 39:55:70
  TRACK 13 AUDIO
    TITLE "Sinfonia C-Dur R.719 – I. Allegro molto"
    PERFORMER "Vivaldi"
    INDEX 00 43:49:00
    INDEX 01 43:52:30
  TRACK 14 AUDIO
    TITLE "Sinfonia C-Dur R.719 – II. Larghetto"
    PERFORMER "Vivaldi"
    INDEX 01 49:09:60
  TRACK 15 AUDIO
    TITLE "Sinfonia C-Dur R.719 – III. Allegro"
    PERFORMER "Vivaldi"
    INDEX 00 52:17:50
    INDEX 01 52:20:35
  TRACK 16 AUDIO
    TITLE "Concerto A-Dur R.158 – I. Allegro molto"
    PERFORMER "Vivaldi"
    INDEX 00 53:54:60
    INDEX 01 53:57:15
  TRACK 17 AUDIO
    TITLE "Concerto A-Dur R.158 – II. Andante"
    PERFORMER "Vivaldi"
    INDEX 00 56:44:05
    INDEX 01 56:45:35
  TRACK 18 AUDIO
    TITLE "Concerto A-Dur R.158 – III. Allegro"
    PERFORMER "Vivaldi"
    INDEX 00 59:31:00
    INDEX 01 59:32:30
-
[teatrix.ru].t9894.torrent 
Торрент: Зарегистрирован [ 2015-10-25 20:37 ] · C8FE1446A3E17A73DA506E1E0E3117B26112CEB3

Скачать .torrent

Скачать

12 KB

Статус: проверено
Скачан: 0 раз
Размер: 279 MB
terms.php



Быстрый ответ

Имя:

      
Для отправки сообщений необходимо включить JavaScript
Показать сообщения:    

Текущее время: 10-Дек 09:57

Часовой пояс: UTC + 3


Вы можете начинать темы
Вы можете отвечать на сообщения
Вы не можете редактировать свои сообщения
Вы не можете удалять свои сообщения
Вы не можете голосовать в опросах
Вы не можете прикреплять файлы к сообщениям
Вы можете скачивать файлы