(Classical) Sergei Rachmaninov / Сергей Рахманинов — Piano Concertos 1-4 (Vladimir Ashkenazy / Владимир Ашкенази; Bernard Haitink) — 2006, APE (image+.cue) lossless


Статистика раздачи [Обновить пиров]
Размер:  470 MB   |    Зарегистрирован:  1 год 1 месяц   |    Скачан:  0 раз
Сидов:  1  [  0 KB/s  ]   Подробная статистика пиров
 
   
 
 
 

[Цитировать]

Piano Concertos 1-4- Жанр: Classical
Страна-производитель дисков: Россия
Год издания дисков: 2006
Год записи фонограммы: 1982
Издатель (лейбл): Elite Classics
Номера по каталогу: SI-821-A / SI-821-B
Композитор: Сергей Рахманинов
Аудио кодек: ape
Тип рипа: image+.cue
Битрейт аудио: lossless
Продолжительность: 02h13'55"
Источник: собственный рип
Наличие сканов в содержимом раздачи: нет-

Треклист

CD1 – 01h11'35"
Piano Concerto № 1 fis-moll Op 1
01. I. Vivace [00h13'08"]
02. II. Andante [00h06'44"]
03. III. Allegro vivace [00h08'16"]
Piano Concerto № 3 d-moll Op 30
04. I. Allegro ma non tanto [00h17'30"]
05. II. Intermezzo: Adagio [00h11'32"]
06. III. Finale: Alla breve [00h14'25"]-

EAC log

Exact Audio Copy V0.99 prebeta 5 from 4. May 2009
Отчёт EAC об извлечении, выполненном 19. сентября 2014, 13:22
Rachmaninov / Piano Concertos 1 & 3
Дисковод: MITSUMI CR-486ETE   Adapter: 1  ID: 0
Режим чтения                 : Достоверность
Использование точного потока : Да
Отключение кэша аудио        : Да
Использование указателей C2  : Нет
Коррекция смещения при чтении                     : 6
Способность читать области Lead-in и Lead-out     : Нет
Заполнение пропущенных сэмплов тишиной            : Да
Удаление блоков с тишиной в начале и конце        : Нет
При вычислениях CRC использовались нулевые сэмплы : Да
Интерфейс                                         : Установленный внешний ASPI-интерфейс
Выходной формат          : Monkey's Audio (без потерь)
Выбранный битрейт        : Normal Lossless Compression
Качество                 : Высокий
Добавление ID3-тэга      : Нет
Утилита сжатия           : C:\Program Files\Monkey's Audio\MAC.exe
TOC извлечённого CD
     Трек |   Старт  | Длительность | Начальный сектор | Конечный сектор
    ---------------------------------------------------------------------
       1  |  0:00.33 |   13:08.25   |          33      |      59157
       2  | 13:08.58 |    6:43.50   |       59158      |      89432
       3  | 19:52.33 |    8:15.50   |       89433      |     126607
       4  | 28:08.08 |   17:30.12   |      126608      |     205369
       5  | 45:38.20 |   11:31.38   |      205370      |     257232
       6  | 57:09.58 |   14:25.12   |      257233      |     322119
Характеристики диапазона извлечения и сообщения об ошибках
Выбранный диапазон
     Имя файла D:\Музыка lossless\Rachmaninov Ashkenazy Haitink\CD1\Rachmaninov - Piano Concertos 1 & 3.wav
     Пиковый уровень 100.0 %
     Качество диапазона 99.9 %
     CRC теста 11BE1F48
     CRC копии 11BE1F48
     Копирование... OK
Ошибок не произошло
AccurateRip: сводка
Трек  1  точность не определена (достоверность 27)  [6FBB317C], AccurateRip вернул [13C5EB42]
Трек  2  точность не определена (достоверность 26)  [2338D84F], AccurateRip вернул [79FF9231]
Трек  3  точность не определена (достоверность 25)  [FECA85F6], AccurateRip вернул [2C724D40]
Трек  4  точность не определена (достоверность 25)  [C5F4A459], AccurateRip вернул [F67A6932]
Трек  5  точность не определена (достоверность 24)  [597BE4A4], AccurateRip вернул [EA59AED5]
Трек  6  точность не определена (достоверность 24)  [82E0DF41], AccurateRip вернул [76375B1B]
Ни один трек не прошёл проверки на точность
В вашей базе может быть иной вариант штамповки диска
Конец отчёта

-

CUE

REM GENRE Classical
REM DATE 2006
REM DISCID 4910C606
REM COMMENT "ExactAudioCopy v0.99pb5"
PERFORMER "Rachmaninov"
TITLE "Piano Concertos 1 & 3"
FILE "Rachmaninov - Piano Concertos 1 & 3.ape" WAVE
  TRACK 01 AUDIO
    TITLE "Piano Concerto № 1 fis-moll Op 1 – I. Vivace"
    PERFORMER "Rachmaninov"
    INDEX 00 00:00:00
    INDEX 01 00:00:33
  TRACK 02 AUDIO
    TITLE "Piano Concerto № 1 fis-moll Op 1 – II. Andante"
    PERFORMER "Rachmaninov"
    INDEX 00 13:06:33
    INDEX 01 13:08:58
  TRACK 03 AUDIO
    TITLE "Piano Concerto № 1 fis-moll Op 1 – III. Allegro vivace"
    PERFORMER "Rachmaninov"
    INDEX 01 19:52:33
  TRACK 04 AUDIO
    TITLE "Piano Concerto № 3 d-moll Op 30 – I. Allegro ma non tanto"
    PERFORMER "Rachmaninov"
    INDEX 00 27:58:71
    INDEX 01 28:08:08
  TRACK 05 AUDIO
    TITLE "Piano Concerto № 3 d-moll Op 30 – II. Intermezzo: Adagio"
    PERFORMER "Rachmaninov"
    INDEX 00 45:34:33
    INDEX 01 45:38:20
  TRACK 06 AUDIO
    TITLE "Piano Concerto № 3 d-moll Op 30 – III. Finale: Alla breve"
    PERFORMER "Rachmaninov"
    INDEX 01 57:09:58
-CD2 – 01h02'20"
Piano Concerto № 2 c-moll Op 18
01. I. Moderato [00h11'39"]
02. II. Adagio sostenuto [00h11'27"]
03. III. Allegro scherzando [00h11'23"]
Piano Concerto № 4 g-moll Op 40
04. I. Allegro vivace [00h10'30"]
05. II. Largo [00h07'35"]
06. III. Allegro vivace [00h09'46"]
Concertgebouw Orchestra, cond. Bernard Haitink, Piano – Vladimir Ashkenazy / Владимир Ашкенази-

EAC log

Exact Audio Copy V0.99 prebeta 5 from 4. May 2009
Отчёт EAC об извлечении, выполненном 19. сентября 2014, 14:43
Rachmaninov / Piano Concertos 2 & 4
Дисковод: MITSUMI CR-486ETE   Adapter: 1  ID: 0
Режим чтения                 : Достоверность
Использование точного потока : Да
Отключение кэша аудио        : Да
Использование указателей C2  : Нет
Коррекция смещения при чтении                     : 6
Способность читать области Lead-in и Lead-out     : Нет
Заполнение пропущенных сэмплов тишиной            : Да
Удаление блоков с тишиной в начале и конце        : Нет
При вычислениях CRC использовались нулевые сэмплы : Да
Интерфейс                                         : Установленный внешний ASPI-интерфейс
Выходной формат          : Monkey's Audio (без потерь)
Выбранный битрейт        : Normal Lossless Compression
Качество                 : Высокий
Добавление ID3-тэга      : Нет
Утилита сжатия           : C:\Program Files\Monkey's Audio\MAC.exe
TOC извлечённого CD
     Трек |   Старт  | Длительность | Начальный сектор | Конечный сектор
    ---------------------------------------------------------------------
       1  |  0:00.33 |   11:38.40   |          33      |      52422
       2  | 11:38.73 |   11:27.12   |       52423      |     103959
       3  | 23:06.10 |   11:22.58   |      103960      |     155167
       4  | 34:28.68 |   10:30.30   |      155168      |     202447
       5  | 44:59.23 |    7:35.10   |      202448      |     236582
       6  | 52:34.33 |    9:45.45   |      236583      |     280502
Характеристики диапазона извлечения и сообщения об ошибках
Выбранный диапазон
     Имя файла D:\Музыка lossless\Rachmaninov Ashkenazy Haitink\CD2\Rachmaninov - Piano Concertos 2 & 4.wav
     Пиковый уровень 100.0 %
     Качество диапазона 99.9 %
     CRC теста E6A55901
     CRC копии E6A55901
     Копирование... OK
Ошибок не произошло
AccurateRip: сводка
Трек  1  точность не определена (достоверность 100)  [2840C4F4], AccurateRip вернул [99287EBD]
Трек  2  точность не определена (достоверность 101)  [D9A621E5], AccurateRip вернул [13535650]
Трек  3  точность не определена (достоверность 103)  [C72C87BC], AccurateRip вернул [37AFA53B]
Трек  4  точность не определена (достоверность 103)  [B889A623], AccurateRip вернул [C2BF814E]
Трек  5  точность не определена (достоверность 98)  [1A004ADC], AccurateRip вернул [3268AD29]
Трек  6  точность не определена (достоверность 100)  [6B373B70], AccurateRip вернул [3AB1168B]
Ни один трек не прошёл проверки на точность
В вашей базе может быть иной вариант штамповки диска
Конец отчёта

-

CUE

REM GENRE Classical
REM DATE 2006
REM DISCID 3F0E9C06
REM COMMENT "ExactAudioCopy v0.99pb5"
PERFORMER "Rachmaninov"
TITLE "Piano Concertos 2 & 4"
FILE "Rachmaninov - Piano Concertos 2 & 4.ape" WAVE
  TRACK 01 AUDIO
    TITLE "Piano Concerto № 2 c-moll Op 18 – I. Moderato"
    PERFORMER "Rachmaninov"
    INDEX 00 00:00:00
    INDEX 01 00:00:33
  TRACK 02 AUDIO
    TITLE "Piano Concerto № 2 c-moll Op 18 – II. Adagio sostenuto"
    PERFORMER "Rachmaninov"
    INDEX 00 11:33:45
    INDEX 01 11:38:73
  TRACK 03 AUDIO
    TITLE "Piano Concerto № 2 c-moll Op 18 – III. Allegro scherzando"
    PERFORMER "Rachmaninov"
    INDEX 01 23:06:10
  TRACK 04 AUDIO
    TITLE "Piano Concerto № 4 g-moll Op 40 – I. Allegro vivace"
    PERFORMER "Rachmaninov"
    INDEX 00 34:23:30
    INDEX 01 34:28:68
  TRACK 05 AUDIO
    TITLE "Piano Concerto № 4 g-moll Op 40 – II. Largo"
    PERFORMER "Rachmaninov"
    INDEX 00 44:58:15
    INDEX 01 44:59:23
  TRACK 06 AUDIO
    TITLE "Piano Concerto № 4 g-moll Op 40 – III. Allegro vivace"
    PERFORMER "Rachmaninov"
    INDEX 01 52:34:33

-
-
[teatrix.ru].t9895.torrent 
Торрент: Зарегистрирован [ 2015-10-25 20:37 ] · 022AB851E2D19FB3EA8CE4F8CA4515DCCB0F8B49

Скачать .torrent

Скачать

19 KB

Статус: проверено
Скачан: 0 раз
Размер: 470 MB
terms.php



Быстрый ответ

Имя:

      
Для отправки сообщений необходимо включить JavaScript
Показать сообщения:    

Текущее время: 04-Дек 21:20

Часовой пояс: UTC + 3


Вы можете начинать темы
Вы можете отвечать на сообщения
Вы не можете редактировать свои сообщения
Вы не можете удалять свои сообщения
Вы не можете голосовать в опросах
Вы не можете прикреплять файлы к сообщениям
Вы можете скачивать файлы