(Classical) Frederic Chopin (Фредерик Шопен) — Piano Concerto № 2 Op 21 • Scherzo Op 31 (Dubravka Tomsic, Pavica Gvozdic, Peter Schmalfuss; Marko Munih) (CD2/2 + Bonus с CD1) — 1992, APE (image+.cue) lossless


Статистика раздачи [Обновить пиров]
Размер:  159 MB   |    Зарегистрирован:  1 год 1 месяц   |    Скачан:  0 раз

Полного источника не было: Никогда

 
   
 
 
 

[Цитировать]

Piano Concerto № 2 Op 21 • Scherzo Op 31- Жанр: Classical
Страна-производитель диска: Германия
Год издания диска: 1992
Издатель (лейбл): Interphon Classics / Formula Classics
Номер по каталогу: 451 026-2
CATALOG: 4011692510261
Композитор: Frederic Chopin
Аудио кодек: ape
Тип рипа: image+.cue
Битрейт аудио: lossless
Продолжительность: 01h00'23"
Источник: собственный рип
Наличие сканов в содержимом раздачи: нет-Треклист:
Piano Concerto № 2 f-moll Op 21
01. I. Maestoso [00h14'11"]
02. II. Larghetto [00h09'18"]
03. III. Allegro vivace [00h08'18"]
Radio Symphony Orchestra Ljubljana, cond. Marko Munih, Piano – Dubravka Tomšič
04. Scherzo B-Dur Op 31 [00h10'08"]
Piano – Pavica Gvozdić-

EAC log

Exact Audio Copy V0.99 prebeta 5 from 4. May 2009
Отчёт EAC об извлечении, выполненном 15. августа 2014, 20:55
Chopin / Piano Concerto № 2
Дисковод: PIONEER DVD-RW  DVR-111D   Adapter: 0  ID: 1
Режим чтения                 : Достоверность
Использование точного потока : Да
Отключение кэша аудио        : Да
Использование указателей C2  : Нет
Коррекция смещения при чтении                     : 48
Способность читать области Lead-in и Lead-out     : Нет
Заполнение пропущенных сэмплов тишиной            : Да
Удаление блоков с тишиной в начале и конце        : Нет
При вычислениях CRC использовались нулевые сэмплы : Да
Интерфейс                                         : Установленный внешний ASPI-интерфейс
Выходной формат          : Monkey's Audio (без потерь)
Выбранный битрейт        : Normal Lossless Compression
Качество                 : Высокий
Добавление ID3-тэга      : Нет
Утилита сжатия           : C:\Program Files\Monkey's Audio\MAC.exe
TOC извлечённого CD
     Трек |   Старт  | Длительность | Начальный сектор | Конечный сектор
    ---------------------------------------------------------------------
       1  |  0:00.00 |   14:10.57   |           0      |      63806
       2  | 14:10.57 |    9:17.70   |       63807      |     105651
       3  | 23:28.52 |    8:17.65   |      105652      |     142991
       4  | 31:46.42 |   10:08.08   |      142992      |     188599
Характеристики диапазона извлечения и сообщения об ошибках
Выбранный диапазон
     Имя файла D:\Музыка lossless\Chopin Piano Concerto № 2 Tomsic\Chopin - Piano Concerto № 2.wav
     Пиковый уровень 81.3 %
     Качество диапазона 100.0 %
     CRC теста BA7DC0EC
     CRC копии BA7DC0EC
     Копирование... OK
Ошибок не произошло
AccurateRip: сводка
Трек  1  точность не определена (достоверность 1)  [A1FF7DA4], AccurateRip вернул [822DFCC4]
Трек  2  точность не определена (достоверность 1)  [EF8DF9D3], AccurateRip вернул [6BAF0FAB]
Трек  3  точность не определена (достоверность 1)  [D2AC3188], AccurateRip вернул [D17106BA]
Трек  4  точность не определена (достоверность 1)  [3C6066BB], AccurateRip вернул [99DF5A89]
Ни один трек не прошёл проверки на точность
В вашей базе может быть иной вариант штамповки диска
Конец отчёта

-

CUE

REM GENRE Classical
REM DATE 1992
REM DISCID 2909D204
REM COMMENT "ExactAudioCopy v0.99pb5"
PERFORMER "Chopin"
TITLE "Piano Concerto № 2"
FILE "Chopin - Piano Concerto № 2.ape" WAVE
  TRACK 01 AUDIO
    TITLE "Piano Concerto № 2 f-moll Op 21 – I. Maestoso"
    PERFORMER "Chopin"
    INDEX 01 00:00:00
  TRACK 02 AUDIO
    TITLE "Piano Concerto № 2 f-moll Op 21 – II. Larghetto"
    PERFORMER "Chopin"
    INDEX 00 14:04:45
    INDEX 01 14:10:57
  TRACK 03 AUDIO
    TITLE "Piano Concerto № 2 f-moll Op 21 – III. Allegro vivace"
    PERFORMER "Chopin"
    INDEX 00 23:25:02
    INDEX 01 23:28:52
  TRACK 04 AUDIO
    TITLE "Scherzo B-Dur Op 31"
    PERFORMER "Chopin"
    INDEX 00 31:41:27
    INDEX 01 31:46:42

-

Дополнительная информация

2-х дисковый сет, чей 1-й CD, увы, не поддаётся извлечению образом ни на одном из доступных приводов. По счастью, концерт e-moll Op 11 (1-я часть коего и стопорит дело), хоть и в иной штапмовке, но том же исполнении. Позволил себе сграбить потреково доукомплектовывающую содержание злополучного CD1 мелочь и приложить к раздаче bonus'ом. Enjoy!
04. Ballade № 4 f-moll Op 52 [00h11'14"]
Piano – Pavica Gvozdić
05. Etude № 19 cis-moll Op 25/7 [00h07'14"]
Piano – Peter Schmalfuss-

EAC log

Exact Audio Copy V0.99 prebeta 5 from 4. May 2009
Отчёт EAC об извлечении, выполненном 18. сентября 2014, 7:55
Chopin / Piano Concerto № 1 e-moll Op 11
Дисковод: PIONEER DVD-RW  DVR-111D   Adapter: 1  ID: 1
Режим чтения                 : Достоверность
Использование точного потока : Да
Отключение кэша аудио        : Да
Использование указателей C2  : Нет
Коррекция смещения при чтении                     : 48
Способность читать области Lead-in и Lead-out     : Нет
Заполнение пропущенных сэмплов тишиной            : Да
Удаление блоков с тишиной в начале и конце        : Нет
При вычислениях CRC использовались нулевые сэмплы : Да
Интерфейс                                         : Установленный внешний ASPI-интерфейс
Обработка зазоров                                 : Добавлено к предыдущему треку
Выходной формат          : Monkey's Audio (без потерь)
Выбранный битрейт        : Normal Lossless Compression
Качество                 : Высокий
Добавление ID3-тэга      : Нет
Утилита сжатия           : C:\Program Files\Monkey's Audio\MAC.exe
TOC извлечённого CD
     Трек |   Старт  | Длительность | Начальный сектор | Конечный сектор
    ---------------------------------------------------------------------
       1  |  0:00.00 |   20:00.50   |           0      |      90049
       2  | 20:00.50 |   10:24.70   |       90050      |     136919
       3  | 30:25.45 |    9:35.57   |      136920      |     180101
       4  | 40:01.27 |   11:13.48   |      180102      |     230624
       5  | 51:15.00 |    7:14.25   |      230625      |     263199
Трек  4
     Имя файла D:\Музыка lossless\Ballade № 4 f-moll Op 52.wav
     Длина предзазора  0:00:02.72
     Пиковый уровень 58.5 %
     Качество трека 100.0 %
     CRC теста A59DFF6A
     CRC копии A59DFF6A
     Точность не определена (достоверность 2)  [BA100BD1], AccurateRip вернул [D5D523F5]
     Копирование... OK
Трек  5
     Имя файла D:\Музыка lossless\Etude № 19 cis-moll Op 25,7.wav
     Длина предзазора  0:00:02.05
     Пиковый уровень 58.4 %
     Качество трека 99.9 %
     CRC теста 6A8995A8
     CRC копии 6A8995A8
     Точность не определена (достоверность 2)  [AA7EA2A6], AccurateRip вернул [68C249DB]
     Копирование... OK
Ни один трек не прошёл проверки на точность
В вашей базе может быть иной вариант штамповки диска
Ошибок не произошло
Конец отчёта

-

CUE

REM GENRE Classical
REM DATE 1992
REM DISCID 330DB505
REM COMMENT "ExactAudioCopy v0.99pb5"
PERFORMER "Chopin"
TITLE "Piano Concerto № 1 e-moll Op 11"
FILE "Piano Concerto № 1 e-moll Op 11 – I. Allegro Maestoso.wav" WAVE
  TRACK 01 AUDIO
    TITLE "Piano Concerto № 1 e-moll Op 11 – I. Allegro Maestoso"
    PERFORMER "Chopin"
    INDEX 01 00:00:00
  TRACK 02 AUDIO
    TITLE "Piano Concerto № 1 e-moll Op 11 – II. Romanza: Lagretto"
    PERFORMER "Chopin"
    INDEX 00 19:55:25
FILE "Piano Concerto № 1 e-moll Op 11 – II. Romanza- Lagretto.wav" WAVE
    INDEX 01 00:00:00
  TRACK 03 AUDIO
    TITLE "Piano Concerto № 1 e-moll Op 11 – III. Rondo: Vivace"
    PERFORMER "Chopin"
    INDEX 00 10:22:02
FILE "Piano Concerto № 1 e-moll Op 11 – III. Rondo- Vivace.wav" WAVE
    INDEX 01 00:00:00
  TRACK 04 AUDIO
    TITLE "Ballade № 4 f-moll Op 52"
    PERFORMER "Chopin"
    INDEX 00 09:32:60
FILE "Ballade № 4 f-moll Op 52.wav" WAVE
    INDEX 01 00:00:00
  TRACK 05 AUDIO
    TITLE "Etude № 19 cis-moll Op 25/7"
    PERFORMER "Chopin"
    INDEX 00 11:11:43
FILE "Etude № 19 cis-moll Op 25,7.wav" WAVE
    INDEX 01 00:00:00

-
-
[teatrix.ru].t9896.torrent 
Торрент: Зарегистрирован [ 2015-10-25 20:37 ] · FBBC01833A42849E6D04386AEE7E689EA37CA94A

Скачать .torrent

Скачать

13 KB

Статус: проверено
Скачан: 0 раз
Размер: 159 MB
terms.php



Быстрый ответ

Имя:

      
Для отправки сообщений необходимо включить JavaScript
Показать сообщения:    

Текущее время: 10-Дек 13:53

Часовой пояс: UTC + 3


Вы можете начинать темы
Вы можете отвечать на сообщения
Вы не можете редактировать свои сообщения
Вы не можете удалять свои сообщения
Вы не можете голосовать в опросах
Вы не можете прикреплять файлы к сообщениям
Вы можете скачивать файлы