(Classical) Wolfgang Amadeus Mozart — Piano Concertos № 12 & 17 (KV 414 & 453) (Walter Klien, Leonard Hokanson; Jorg Faerber, Kurt Redel) — 1993, APE (image+.cue) lossless


Статистика раздачи [Обновить пиров]
Размер:  220 MB   |    Зарегистрирован:  1 год 2 месяца   |    Скачан:  0 раз

Полного источника не было: Никогда

 
   
 
 
 

[Цитировать]

Piano Concertos № 12 & 17 (KV 414 & 453)- Жанр: Classical
Страна-производитель диска: Германия
Год издания диска: 1993
Издатель (лейбл): ZYX Classic
Номер по каталогу: CLS 4091
CATALOG: 09020400501
Композитор: Wolfgang Amadeus Mozart
Аудио кодек: ape
Тип рипа: image+.cue
Битрейт аудио: lossless
Продолжительность: 01h01'04"
Источник: собственный рип
Наличие сканов в содержимом раздачи: нет-Треклист:
Piano Concerto № 12 A-Dur KV 414
01. I. Allegro [00h09'59"]
02. II. Andante [00h07'12"]
03. III. Allegro [00h06'04"]
Württembergisches Kammerorchester, cond. Jörg Faerber, Piano – Walter Klien
Piano Concerto № 17 G-Dur KV 453
04. I. Allegro [00h11'43"]
05. II. Andante [00h09'20"]
06. III. Allegretto [00h07'53"]
Camerata Labacensis, cond. Kurt Redel, Piano – Leonard Hokanson
07. Andante for mechanical organ F-Dur KV 616 [00h06'52"]
08. Menuett D-Dur KV 355 [00h02'01"]
Piano – Peter Schmalfuss-

EAC log

Exact Audio Copy V0.99 prebeta 5 from 4. May 2009
Отчёт EAC об извлечении, выполненном 16. сентября 2014, 14:56
Mozart / Piano Concertos № 12 & 17
Дисковод: PIONEER DVD-RW  DVR-111D   Adapter: 1  ID: 0
Режим чтения                 : Достоверность
Использование точного потока : Да
Отключение кэша аудио        : Да
Использование указателей C2  : Нет
Коррекция смещения при чтении                     : 48
Способность читать области Lead-in и Lead-out     : Нет
Заполнение пропущенных сэмплов тишиной            : Да
Удаление блоков с тишиной в начале и конце        : Нет
При вычислениях CRC использовались нулевые сэмплы : Да
Интерфейс                                         : Установленный внешний ASPI-интерфейс
Выходной формат          : Monkey's Audio (без потерь)
Выбранный битрейт        : Normal Lossless Compression
Качество                 : Высокий
Добавление ID3-тэга      : Нет
Утилита сжатия           : C:\Program Files\Monkey's Audio\MAC.exe
TOC извлечённого CD
     Трек |   Старт  | Длительность | Начальный сектор | Конечный сектор
    ---------------------------------------------------------------------
       1  |  0:00.00 |    9:58.50   |           0      |      44899
       2  |  9:58.50 |    7:12.00   |       44900      |      77299
       3  | 17:10.50 |    6:03.62   |       77300      |     104586
       4  | 23:14.37 |   11:42.68   |      104587      |     157304
       5  | 34:57.30 |    9:19.50   |      157305      |     199279
       6  | 44:17.05 |    7:53.30   |      199280      |     234784
       7  | 52:10.35 |    6:52.02   |      234785      |     265686
       8  | 59:02.37 |    2:01.35   |      265687      |     274796
Характеристики диапазона извлечения и сообщения об ошибках
Выбранный диапазон
     Имя файла D:\Музыка lossless\Mozart Piano Concertos № 12 & 17 Klien Hokanson\Mozart - Piano Concertos № 12 & 17.wav
     Пиковый уровень 86.9 %
     Качество диапазона 100.0 %
     CRC теста 633301D3
     CRC копии 633301D3
     Копирование... OK
Ошибок не произошло
AccurateRip: сводка
Трек  1  нет в базе данных
Трек  2  нет в базе данных
Трек  3  нет в базе данных
Трек  4  нет в базе данных
Трек  5  нет в базе данных
Трек  6  нет в базе данных
Трек  7  нет в базе данных
Трек  8  нет в базе данных
Ни одного трека нет в базе AccurateRip
Конец отчёта

-

CUE

REM GENRE Classical
REM DATE 1993
REM DISCID 640E4F08
REM COMMENT "ExactAudioCopy v0.99pb5"
PERFORMER "Mozart"
TITLE "Piano Concertos № 12 & 17"
FILE "Mozart - Piano Concertos № 12 & 17.ape" WAVE
  TRACK 01 AUDIO
    TITLE "Piano Concerto № 12 A-Dur KV 414 – I. Allegro"
    PERFORMER "Mozart"
    INDEX 01 00:00:00
  TRACK 02 AUDIO
    TITLE "Piano Concerto № 12 A-Dur KV 414 – II. Andante"
    PERFORMER "Mozart"
    INDEX 00 09:55:27
    INDEX 01 09:58:50
  TRACK 03 AUDIO
    TITLE "Piano Concerto № 12 A-Dur KV 414 – III. Allegro"
    PERFORMER "Mozart"
    INDEX 00 17:08:72
    INDEX 01 17:10:50
  TRACK 04 AUDIO
    TITLE "Piano Concerto № 17 G-Dur KV 453 – I. Allegro"
    PERFORMER "Mozart"
    INDEX 00 23:07:02
    INDEX 01 23:14:37
  TRACK 05 AUDIO
    TITLE "Piano Concerto № 17 G-Dur KV 453 – II. Andante"
    PERFORMER "Mozart"
    INDEX 00 34:53:50
    INDEX 01 34:57:30
  TRACK 06 AUDIO
    TITLE "Piano Concerto № 17 G-Dur KV 453 – III. Allegretto"
    PERFORMER "Mozart"
    INDEX 00 44:14:37
    INDEX 01 44:17:05
  TRACK 07 AUDIO
    TITLE "Andante F-Dur KV 616"
    PERFORMER "Mozart"
    INDEX 00 52:03:40
    INDEX 01 52:10:35
  TRACK 08 AUDIO
    TITLE "Menuett D-Dur KV 355"
    PERFORMER "Mozart"
    INDEX 00 58:56:72
    INDEX 01 59:02:37
-
[teatrix.ru].t9897.torrent 
Торрент: Зарегистрирован [ 2015-10-25 20:37 ] · FE38E6424D785E4082095A0482E0C27F5FC2379F

Скачать .torrent

Скачать

18 KB

Статус: проверено
Скачан: 0 раз
Размер: 220 MB
terms.php



Быстрый ответ

Имя:

      
Для отправки сообщений необходимо включить JavaScript
Показать сообщения:    

Текущее время: 24-Янв 12:13

Часовой пояс: UTC + 3


Вы можете начинать темы
Вы можете отвечать на сообщения
Вы не можете редактировать свои сообщения
Вы не можете удалять свои сообщения
Вы не можете голосовать в опросах
Вы не можете прикреплять файлы к сообщениям
Вы можете скачивать файлы