(Classical) Wolfgang Amadeus Mozart — Piano Concertos № 23 & 27 (KV 488 & 595) (Svetlana Stanceva, Peter Schmalfuss; Alberto Lizzio, Stanislav Bogunia) — 1993, APE (image+.cue) lossless


Статистика раздачи [Обновить пиров]
Размер:  219 MB   |    Зарегистрирован:  1 год 1 месяц   |    Скачан:  0 раз

Полного источника не было: Никогда

 
   
 
 
 

[Цитировать]

Piano Concertos № 23 & 27 (KV 488 & 595)- Жанр: Classical
Страна-производитель диска: Германия
Год издания диска: 1993
Издатель (лейбл): ZYX Classic
Номер по каталогу: CLS 4092
CATALOG: 09020400502
Композитор: Wolfgang Amadeus Mozart
Аудио кодек: ape
Тип рипа: image+.cue
Битрейт аудио: lossless
Продолжительность: 01h01'38"
Источник: собственный рип
Наличие сканов в содержимом раздачи: нет-Треклист:
Piano Concerto № 23 A-Dur KV 488
01. I. Allegro [00h10'50"]
02. II. Adagio [00h05'57"]
03. III. Allegro assai [00h08'04"]
Mozart Festival Orchestra, cond. Alberto Lizzio, Piano – Svetlana Stanceva
Piano Concerto № 27 B-Dur KV 595
04. I. Allegro [00h13'24"]
05. II. Larghetto [00h06'37"]
06. III. Allegro [00h08'29"]
Westböhmisches Staatsorchester, cond. Stanislav Bogunia, Piano – Peter Schmalfuss
07. Piano Concerto No 22 Es-Dur KV 482 – II. Andante [00h08'17"]
n/a-

EAC log

Exact Audio Copy V0.99 prebeta 5 from 4. May 2009
Отчёт EAC об извлечении, выполненном 16. сентября 2014, 11:25
Mozart / Piano Concertos № 23 & 27 Stanceva Schmalfuss
Дисковод: PIONEER DVD-RW  DVR-111D   Adapter: 1  ID: 0
Режим чтения                 : Достоверность
Использование точного потока : Да
Отключение кэша аудио        : Да
Использование указателей C2  : Нет
Коррекция смещения при чтении                     : 48
Способность читать области Lead-in и Lead-out     : Нет
Заполнение пропущенных сэмплов тишиной            : Да
Удаление блоков с тишиной в начале и конце        : Нет
При вычислениях CRC использовались нулевые сэмплы : Да
Интерфейс                                         : Установленный внешний ASPI-интерфейс
Выходной формат          : Monkey's Audio (без потерь)
Выбранный битрейт        : Normal Lossless Compression
Качество                 : Высокий
Добавление ID3-тэга      : Нет
Утилита сжатия           : C:\Program Files\Monkey's Audio\MAC.exe
TOC извлечённого CD
     Трек |   Старт  | Длительность | Начальный сектор | Конечный сектор
    ---------------------------------------------------------------------
       1  |  0:00.00 |   10:50.17   |           0      |      48766
       2  | 10:50.17 |    5:56.45   |       48767      |      75511
       3  | 16:46.62 |    8:04.13   |       75512      |     111824
       4  | 24:51.00 |   13:23.72   |      111825      |     172121
       5  | 38:14.72 |    6:36.53   |      172122      |     201874
       6  | 44:51.50 |    8:29.25   |      201875      |     240074
       7  | 53:21.00 |    8:16.55   |      240075      |     277329
Характеристики диапазона извлечения и сообщения об ошибках
Выбранный диапазон
     Имя файла D:\Музыка lossless\Mozart Piano Concertos № 23 & 27 Stanceva Schmalfuss\Mozart - Piano Concertos № 23 & 27 Stanceva Schmalfuss.wav
     Пиковый уровень 87.0 %
     Качество диапазона 100.0 %
     CRC теста BD2BD012
     CRC копии BD2BD012
     Копирование... OK
Ошибок не произошло
AccurateRip: сводка
Трек  1  точность не определена (достоверность 2)  [5841014F], AccurateRip вернул [FC41D290]
Трек  2  точность не определена (достоверность 2)  [E6B27BA0], AccurateRip вернул [9879A1B1]
Трек  3  точность не определена (достоверность 2)  [541835D6], AccurateRip вернул [A126FAE1]
Трек  4  точность не определена (достоверность 2)  [30E12833], AccurateRip вернул [F7DFDDB5]
Трек  5  точность не определена (достоверность 2)  [22C5E3DC], AccurateRip вернул [525A77C0]
Трек  6  точность не определена (достоверность 2)  [C5C97C15], AccurateRip вернул [01E3BB3F]
Трек  7  точность не определена (достоверность 2)  [1EE5CEEE], AccurateRip вернул [5C739D8C]
Ни один трек не прошёл проверки на точность
В вашей базе может быть иной вариант штамповки диска
Конец отчёта

-

CUE

REM GENRE Classical
REM DATE 1993
REM DISCID 580E7107
REM COMMENT "ExactAudioCopy v0.99pb5"
PERFORMER "Mozart"
TITLE "Piano Concertos № 23 & 27 Stanceva Schmalfuss"
FILE "Mozart - Piano Concertos № 23 & 27 Stanceva Schmalfuss.ape" WAVE
  TRACK 01 AUDIO
    TITLE "Piano Concerto № 23 A-Dur KV 488 – I. Allegro"
    PERFORMER "Mozart"
    INDEX 01 00:00:00
  TRACK 02 AUDIO
    TITLE "Piano Concerto № 23 A-Dur KV 488 – II. Adagio"
    PERFORMER "Mozart"
    INDEX 00 10:46:30
    INDEX 01 10:50:17
  TRACK 03 AUDIO
    TITLE "Piano Concerto № 23 A-Dur KV 488 – III. Allegro assai"
    PERFORMER "Mozart"
    INDEX 00 16:43:25
    INDEX 01 16:46:62
  TRACK 04 AUDIO
    TITLE "Piano Concerto No 27 B-Dur KV 595 – I. Allegro"
    PERFORMER "Mozart"
    INDEX 00 24:40:22
    INDEX 01 24:51:00
  TRACK 05 AUDIO
    TITLE "Piano Concerto No 27 B-Dur KV 595 – II. Larghetto"
    PERFORMER "Mozart"
    INDEX 00 38:10:00
    INDEX 01 38:14:72
  TRACK 06 AUDIO
    TITLE "Piano Concerto No 27 B-Dur KV 595 – III. Allegro"
    PERFORMER "Mozart"
    INDEX 00 44:50:50
    INDEX 01 44:51:50
  TRACK 07 AUDIO
    TITLE "Piano Concerto No 22 Es-Dur KV 482 – II. Andante"
    PERFORMER "Mozart"
    FLAGS PRE
    INDEX 00 53:11:57
    INDEX 01 53:21:00
-
[teatrix.ru].t9898.torrent 
Торрент: Зарегистрирован [ 2015-10-25 20:37 ] · 587328DF17F9301B1707E70F2A06BC3F5E525FE7

Скачать .torrent

Скачать

18 KB

Статус: проверено
Скачан: 0 раз
Размер: 219 MB
terms.php



Быстрый ответ

Имя:

      
Для отправки сообщений необходимо включить JavaScript
Показать сообщения:    

Текущее время: 05-Дек 19:39

Часовой пояс: UTC + 3


Вы можете начинать темы
Вы можете отвечать на сообщения
Вы не можете редактировать свои сообщения
Вы не можете удалять свои сообщения
Вы не можете голосовать в опросах
Вы не можете прикреплять файлы к сообщениям
Вы можете скачивать файлы