(Classical) Wolfgang Amadeus Mozart — Sinfonia Concertante KV 364 & Concertone KV 190 (Susanne Lautenbacher, Ulrich Koch, Werner Keltsch; Helmuth Rilling) — 1991, APE (image+.cue) lossless


Статистика раздачи [Обновить пиров]
Размер:  294 MB   |    Зарегистрирован:  1 год 1 месяц   |    Скачан:  0 раз

Полного источника не было: Никогда

 
   
 
 
 

[Цитировать]

Sinfonia Concertante KV 364 & Concertone KV 190- Жанр: Classical
Страна-производитель диска: Германия
Год издания диска: 1991
Год записи фонограммы: 1977 (Intercord)
Издатель (лейбл): Vienna Classics
Номер по каталогу: VC 700662
CATALOG: 0724357006620
Композитор: Wolfgang Amadeus Mozart
Аудио кодек: ape
Тип рипа: image+.cue
Битрейт аудио: lossless
Продолжительность: 00h56'36"
Источник: собственный рип
Наличие сканов в содержимом раздачи: нет-Треклист:
Sinfonia Concertante for Violin & Viola Es-Dur KV 364
01. I. Allegro maestoso [00h12'53"]
02. II. Andante [00h10'49"]
03. III. Presto [00h06'26"]
Concertone for Two Solo Violins C-Dur KV 190
04. I. Allegro spiritoso [00h08'26"]
05. II. Andantino grazioso [00h10'39"]
06. III. Tempo de Minuetto. Vivace [00h07'23"]
Bach-Collegium Stuttgart, cond. Helmuth Rilling, Violin – Susanne Lautenbacher, Werner Keltsch (KV 190), Viola – Ulrich Koch (KV 364), Oboe – Alfred Sous (KV 190), Cello – Horst Beckedorf (KV 190)-

EAC log

Exact Audio Copy V0.99 prebeta 5 from 4. May 2009
Отчёт EAC об извлечении, выполненном 16. сентября 2014, 8:34
Mozart / Sinfonia Concertante KV 364 & Concertone KV 190
Дисковод: MITSUMI CR-486ETE   Adapter: 0  ID: 0
Режим чтения                 : Достоверность
Использование точного потока : Да
Отключение кэша аудио        : Да
Использование указателей C2  : Нет
Коррекция смещения при чтении                     : 6
Способность читать области Lead-in и Lead-out     : Нет
Заполнение пропущенных сэмплов тишиной            : Да
Удаление блоков с тишиной в начале и конце        : Нет
При вычислениях CRC использовались нулевые сэмплы : Да
Интерфейс                                         : Установленный внешний ASPI-интерфейс
Выходной формат          : Monkey's Audio (без потерь)
Выбранный битрейт        : Normal Lossless Compression
Качество                 : Высокий
Добавление ID3-тэга      : Нет
Утилита сжатия           : C:\Program Files\Monkey's Audio\MAC.exe
TOC извлечённого CD
     Трек |   Старт  | Длительность | Начальный сектор | Конечный сектор
    ---------------------------------------------------------------------
       1  |  0:00.00 |   12:52.60   |           0      |      57959
       2  | 12:52.60 |   10:48.50   |       57960      |     106609
       3  | 23:41.35 |    6:26.12   |      106610      |     135571
       4  | 30:07.47 |    8:25.60   |      135572      |     173506
       5  | 38:33.32 |   10:39.05   |      173507      |     221436
       6  | 49:12.37 |    7:23.13   |      221437      |     254674
Характеристики диапазона извлечения и сообщения об ошибках
Выбранный диапазон
     Имя файла D:\Музыка lossless\Mozart Sinfonia Concertante KV 364 & Concertone KV 190 Rilling/.Mozart - Sinfonia Concertante KV 364 & Concertone KV 190.wav
     Пиковый уровень 99.7 %
     Качество диапазона 100.0 %
     CRC теста 01C7740D
     CRC копии 01C7740D
     Копирование... OK
Ошибок не произошло
AccurateRip: сводка
Трек  1  точное извлечение (доверие 2)  [538336D0]
Трек  2  точное извлечение (доверие 2)  [9F9D9D5D]
Трек  3  точное извлечение (доверие 2)  [110A6370]
Трек  4  точное извлечение (доверие 2)  [6432708D]
Трек  5  точное извлечение (доверие 2)  [3A8D41A8]
Трек  6  точное извлечение (доверие 2)  [26C63AC0]
Все треки извлечены точно
Конец отчёта

-

CUE

REM GENRE Classical
REM DATE 1991
REM DISCID 4F0D4306
REM COMMENT "ExactAudioCopy v0.99pb5"
PERFORMER "Mozart"
TITLE "Sinfonia Concertante KV 364 & Concertone KV 190"
FILE "Mozart - Sinfonia Concertante KV 364 & Concertone KV 190.ape" WAVE
  TRACK 01 AUDIO
    TITLE "Sinfonia Concertante Es-Dur KV 364 – I. Allegro maestuoso"
    PERFORMER "Mozart"
    INDEX 01 00:00:00
  TRACK 02 AUDIO
    TITLE "Sinfonia Concertante Es-Dur KV 364 – II. Andante"
    PERFORMER "Mozart"
    INDEX 00 12:51:02
    INDEX 01 12:52:60
  TRACK 03 AUDIO
    TITLE "Sinfonia Concertante Es-Dur KV 364 – III. Presto"
    PERFORMER "Mozart"
    INDEX 00 23:40:67
    INDEX 01 23:41:35
  TRACK 04 AUDIO
    TITLE "Concertone C-Dur KV 190 – I. Allegro spiritoso"
    PERFORMER "Mozart"
    INDEX 00 30:01:62
    INDEX 01 30:07:47
  TRACK 05 AUDIO
    TITLE "Concertone C-Dur KV 190 – II. Andantino grazioso"
    PERFORMER "Mozart"
    INDEX 00 38:32:25
    INDEX 01 38:33:32
  TRACK 06 AUDIO
    TITLE "Concertone C-Dur KV 190 – III. Tempo de Minuetto. Vivace"
    PERFORMER "Mozart"
    INDEX 00 49:12:07
    INDEX 01 49:12:37
-
[teatrix.ru].t9899.torrent 
Торрент: Зарегистрирован [ 2015-10-25 20:37 ] · F35409CDC5EAF36E1515223BE2A04D5295EEC653

Скачать .torrent

Скачать

12 KB

Статус: проверено
Скачан: 0 раз
Размер: 294 MB
terms.php



Быстрый ответ

Имя:

      
Для отправки сообщений необходимо включить JavaScript
Показать сообщения:    

Текущее время: 04-Дек 11:15

Часовой пояс: UTC + 3


Вы можете начинать темы
Вы можете отвечать на сообщения
Вы не можете редактировать свои сообщения
Вы не можете удалять свои сообщения
Вы не можете голосовать в опросах
Вы не можете прикреплять файлы к сообщениям
Вы можете скачивать файлы