(Classical) Selim Palmgren - Piano Concertos Nos. 2, 3 & 5 - Juhani Lagerspetz, Matti Raekallio, Raija Kerppo; Turku Philharmonic Orchestra, Jacques Mercier - 1990, FLAC (image+.cue) lossless


Статистика раздачи [Обновить пиров]
Размер:  274 MB   |    Зарегистрирован:  1 год 1 месяц   |    Скачан:  0 раз

Полного источника не было: Никогда

 
   
 
 
 

[Цитировать]

Selim Palmgren - Piano Concertos Nos. 2, 3 & 5 - Juhani Lagerspetz, Matti Raekallio, Raija Kerppo; Turku Philharmonic Orchestra, Jacques Mercier
Жанр: Classical
Страна-производитель диска: Finland
Год издания диска: 1990
Издатель (лейбл): Finlandia Records
Номер по каталогу: FACD 379
Дата записи: 1989
Аудиокодек: FLAC
Тип рипа: image+.cue
Битрейт аудио: lossless
Продолжительность: 63:35
Источник: собственный рип
Наличие сканов в содержимом раздачи: да
Треклист:
Selim Palmgren (1878-1951)
[1] Piano Concerto No.2, Op.33 "The River"
Juhani Lagerspetz piano
[2] Piano Concerto No.3, Op.41 "Métamorphoses"
Matti Raekallio piano
[3]-[5] Piano Concerto No.5 in A major, Op.99
Raija Kerppo piano
Исполнители:
Turku Philharmonic Orchestra
Jacques Mercier

Лог создания рипа

Exact Audio Copy V1.0 beta 3 from 29. August 2011
EAC extraction logfile from 1. September 2014, 20:55
Turku Philharmonic Orchestra, Jacques Mercier / Palmgren - Piano Concertos Nos. 2, 3 & 5
Used drive : HL-DT-STDVDRAM GU70N Adapter: 0 ID: 0
Read mode : SecureUtilize accurate stream : YesDefeat audio cache : YesMake use of C2 pointers : No
Read offset correction : 48Overread into Lead-In and Lead-Out : NoFill up missing offset samples with silence : YesDelete leading and trailing silent blocks : NoNull samples used in CRC calculations : YesUsed interface : Native Win32 interface for Win NT & 2000
Used output format : User Defined EncoderSelected bitrate : 128 kBit/sQuality : HighAdd ID3 tag : NoCommand line compressor : C:\Program Files (x86)\Exact Audio Copy\Flac\flac.exeAdditional command line options : -V -8 -T "Date=%year%" -T "Genre=%genre%" %source%
TOC of the extracted CD
Track | Start | Length | Start sector | End sector --------------------------------------------------------- 1 | 0:00.00 | 21:13.02 | 0 | 95476 2 | 21:13.02 | 18:25.03 | 95477 | 178354 3 | 39:38.05 | 9:31.57 | 178355 | 221236 4 | 49:09.62 | 7:51.60 | 221237 | 256621 5 | 57:01.47 | 6:34.08 | 256622 | 286179
Range status and errors
Selected range
Filename C:\temp\Palmgren - Piano Concertos Nos. 2, 3 & 5\Palmgren - Piano Concertos Nos. 2, 3 & 5.wav
Peak level 100.0 % Extraction speed 2.1 X Range quality 100.0 % Test CRC 58CE3EEC Copy CRC 58CE3EEC Copy OK
No errors occurred
AccurateRip summary
Track 1 accurately ripped (confidence 1) [74E196E9] (AR v2)Track 2 accurately ripped (confidence 1) [DED231DF] (AR v2)Track 3 accurately ripped (confidence 1) [700AEAB0] (AR v2)Track 4 accurately ripped (confidence 1) [B22135E6] (AR v2)Track 5 accurately ripped (confidence 1) [A5BCB458] (AR v2)
All tracks accurately ripped
End of status report
==== Log checksum 2099E69DE911E87C994EE51CCD3EDA266BDA11691F714DFA483A0D90002F877F ====
[teatrix.ru].t9900.torrent 
Торрент: Зарегистрирован [ 2015-10-25 20:37 ] · 3BC67E4E0C89FA7CD07E5A60E26AA339E16B5F87

Скачать .torrent

Скачать

24 KB

Статус: проверено
Скачан: 0 раз
Размер: 274 MB
terms.php



Быстрый ответ

Имя:

      
Для отправки сообщений необходимо включить JavaScript
Показать сообщения:    

Текущее время: 07-Дек 11:38

Часовой пояс: UTC + 3


Вы можете начинать темы
Вы можете отвечать на сообщения
Вы не можете редактировать свои сообщения
Вы не можете удалять свои сообщения
Вы не можете голосовать в опросах
Вы не можете прикреплять файлы к сообщениям
Вы можете скачивать файлы