(Classical) Wolfgang Amadeus Mozart — Piano Concertos № 18 & 25 (KV 456 & 503) (Rudolf Firkusny; Ernest Bour) — 1991, APE (image+.cue) lossless


Статистика раздачи [Обновить пиров]
Размер:  247 MB   |    Зарегистрирован:  1 год 1 месяц   |    Скачан:  0 раз

Полного источника не было: Никогда

 
   
 
 
 

[Цитировать]

Piano Concertos № 18 & 25 (KV 456 & 503)- Жанр: Classical
Страна-производитель диска: Германия
Год издания диска: 1991
Издатель (лейбл): Vienna Classics
Номер по каталогу: VC 700592
CATALOG: 0724357005920
Композитор: Wolfgang Amadeus Mozart
Аудио кодек: ape
Тип рипа: image+.cue
Битрейт аудио: lossless
Продолжительность: 01h00'36"
Источник: собственный рип
Наличие сканов в содержимом раздачи: нет-Треклист:
Piano Concerto № 25 C-Dur KV 503
01. I. Allegro maestoso [00h14'02"]
02. II. Andante [00h07'34"]
03. III. Allegretto [00h08'49"]
Piano Concerto № 18 B-Dur KV 456
04. I. Allegro vivace [00h12'12"]
05. II. Andante un poco sostenuto [00h10'43"]
06. III. Allegro vivace [00h07'17"]
Southwest German Radio Symphony Orchestra, cond. Ernest Bour, Piano – Rudolf Firkušný-

EAC log

Exact Audio Copy V0.99 prebeta 5 from 4. May 2009
Отчёт EAC об извлечении, выполненном 15. сентября 2014, 15:57
Mozart / Piano Concertos № 18 & 25
Дисковод: PIONEER DVD-RW  DVR-111D   Adapter: 1  ID: 0
Режим чтения                 : Достоверность
Использование точного потока : Да
Отключение кэша аудио        : Да
Использование указателей C2  : Нет
Коррекция смещения при чтении                     : 48
Способность читать области Lead-in и Lead-out     : Нет
Заполнение пропущенных сэмплов тишиной            : Да
Удаление блоков с тишиной в начале и конце        : Нет
При вычислениях CRC использовались нулевые сэмплы : Да
Интерфейс                                         : Установленный внешний ASPI-интерфейс
Выходной формат          : Monkey's Audio (без потерь)
Выбранный битрейт        : Normal Lossless Compression
Качество                 : Высокий
Добавление ID3-тэга      : Нет
Утилита сжатия           : C:\Program Files\Monkey's Audio\MAC.exe
TOC извлечённого CD
     Трек |   Старт  | Длительность | Начальный сектор | Конечный сектор
    ---------------------------------------------------------------------
       1  |  0:00.00 |   14:01.70   |           0      |      63144
       2  | 14:01.70 |    7:33.55   |       63145      |      97174
       3  | 21:35.50 |    8:48.40   |       97175      |     136814
       4  | 30:24.15 |   12:12.23   |      136815      |     191737
       5  | 42:36.38 |   10:42.62   |      191738      |     239949
       6  | 53:19.25 |    7:17.03   |      239950      |     272727
Характеристики диапазона извлечения и сообщения об ошибках
Выбранный диапазон
     Имя файла D:\Музыка lossless\Mozart Piano Concertos № 18 & 25 Firkusny\Mozart - Piano Concertos № 18 & 25.wav
     Пиковый уровень 99.9 %
     Качество диапазона 100.0 %
     CRC теста 295AFD24
     CRC копии 295AFD24
     Копирование... OK
Ошибок не произошло
AccurateRip: сводка
Трек  1  точное извлечение (доверие 3)  [95ECA5BE]
Трек  2  точное извлечение (доверие 2)  [44128552]
Трек  3  точное извлечение (доверие 3)  [C1456086]
Трек  4  точное извлечение (доверие 3)  [9BD70807]
Трек  5  точное извлечение (доверие 2)  [7DF69734]
Трек  6  точное извлечение (доверие 3)  [4C7E0F58]
Все треки извлечены точно
Конец отчёта

-

CUE

REM GENRE Classical
REM DATE 1991
REM DISCID 4F0E3406
REM COMMENT "ExactAudioCopy v0.99pb5"
PERFORMER "Mozart"
TITLE "Piano Concertos № 18 & 25"
FILE "Mozart - Piano Concertos № 18 & 25.ape" WAVE
  TRACK 01 AUDIO
    TITLE "Piano Concerto № 25 C-Dur KV 503 – I. Allegro maestoso"
    PERFORMER "Mozart"
    INDEX 01 00:00:00
  TRACK 02 AUDIO
    TITLE "Piano Concerto № 25 C-Dur KV 503 – II. Andante"
    PERFORMER "Mozart"
    INDEX 01 14:01:70
  TRACK 03 AUDIO
    TITLE "Piano Concerto № 25 C-Dur KV 503 – III. Allegretto"
    PERFORMER "Mozart"
    INDEX 01 21:35:50
  TRACK 04 AUDIO
    TITLE "Piano Concerto № 18 B-Dur KV 456 – I. Allegro vivace"
    PERFORMER "Mozart"
    INDEX 00 30:11:43
    INDEX 01 30:24:15
  TRACK 05 AUDIO
    TITLE "Piano Concerto № 18 B-Dur KV 456 – II. Andante un poco sostenuto"
    PERFORMER "Mozart"
    INDEX 01 42:36:38
  TRACK 06 AUDIO
    TITLE "Piano Concerto № 18 B-Dur KV 456 – III. Allegro vivace"
    PERFORMER "Mozart"
    INDEX 01 53:19:25
-
[teatrix.ru].t9901.torrent 
Торрент: Зарегистрирован [ 2015-10-25 20:37 ] · D225C1F48F413121BE4E8CC47B741469898FFA73

Скачать .torrent

Скачать

20 KB

Статус: проверено
Скачан: 0 раз
Размер: 247 MB
terms.php



Быстрый ответ

Имя:

      
Для отправки сообщений необходимо включить JavaScript
Показать сообщения:    

Текущее время: 11-Дек 12:54

Часовой пояс: UTC + 3


Вы можете начинать темы
Вы можете отвечать на сообщения
Вы не можете редактировать свои сообщения
Вы не можете удалять свои сообщения
Вы не можете голосовать в опросах
Вы не можете прикреплять файлы к сообщениям
Вы можете скачивать файлы