(Classical) Rodrigo - Concierto de Aranjuez, Fantasia para un gentilhombre; Vivaldi - Concerto in D major; Bach - Chaconne {Narciso Yepes} - 1992 (Japan Edition), FLAC (tracks+.cue), lossless


Статистика раздачи [Обновить пиров]
Размер:  342 MB   |    Зарегистрирован:  1 год 1 месяц   |    Скачан:  0 раз

Полного источника не было: Никогда

 
   
 
 
 

[Цитировать]

Narciso Yepes - Concierto de Aranjuez
Жанр: Classical
Страна-производитель диска: Япония
Год издания диска: 1992
Издатель (лейбл): Seven Seas/King Record
Номер по каталогу: K30Y-1510
Аудиокодек: FLAC
Тип рипа: tracks+.cue
Битрейт аудио: lossless
Продолжительность: 68:51
Источник (релизер): JJKWCD (what)
Наличие сканов в содержимом раздачи: нет
Треклист:
Joaquin Rodrigo:
Concierto de Aranjuez
01. I. Allegro con spirito (5:58)
02. II. Adagio (9:58)
03. III. Allegro gentile (5:24)
Fantasia para un gentilhombre
04. I. Villano y ricercare (5:28)
05. II. Espanoleta y fanfare de la Caballeria de Napoles (9:55)
06. III. Danza de las hachas (2:06)
07. IV. Canario (5:11)
Antonio Vivaldi: Concerto in D major, RV.93
08. I. Allegro giusto (3:31)
09. II. Largo (4:18)
10. III. Allegro (2:16)
11. Johann Sebastian Bach: Partita in D minor, BWV 1004: 5. Chaconne in D minor (14:46)
Исполнители:
Narciso Yepes - guitar
Spanish National Orchestra (#107)
Ataulfo Argenta (#1-3), Rafael Fruhbeck de Burgos (#4-7), Odon Alonso (#8-10) - conductor

Лог создания рипа

Exact Audio Copy V1.0 beta 3 from 29. August 2011
EAC extraction logfile from 2. September 2014, 14:28
Narciso Yepes / Concierto De Aranjuez
Used drive : HL-DT-STDVDRAM GH24NS50 Adapter: 2 ID: 1
Read mode : SecureUtilize accurate stream : YesDefeat audio cache : YesMake use of C2 pointers : No
Read offset correction : 667Overread into Lead-In and Lead-Out : NoFill up missing offset samples with silence : YesDelete leading and trailing silent blocks : NoNull samples used in CRC calculations : YesUsed interface : Native Win32 interface for Win NT & 2000Gap handling : Appended to previous track
Used output format : User Defined EncoderSelected bitrate : 1024 kBit/sQuality : HighAdd ID3 tag : NoCommand line compressor : D:\Program Files\FLAC\flac.exeAdditional command line options : -8 -V -T "ARTIST=%artist%" -T "TITLE=%title%" -T "ALBUM=%albumtitle%" -T "DATE=%year%" -T "TRACKNUMBER=%tracknr%" -T "TOTALTRACKS=%numtracks%" -T "GENRE=%genre%" -T "ALBUMARTIST=%albumartist%" -T "ALBUM ARTIST=%albumartist%" -T "COMMENT=EAC Secure Mode, Test & Copy, AccurateRip, FLAC -8" %source%
TOC of the extracted CD
Track | Start | Length | Start sector | End sector --------------------------------------------------------- 1 | 0:00.00 | 5:58.07 | 0 | 26856 2 | 5:58.07 | 9:57.60 | 26857 | 71691 3 | 15:55.67 | 5:23.53 | 71692 | 95969 4 | 21:19.45 | 5:27.65 | 95970 | 120559 5 | 26:47.35 | 9:55.00 | 120560 | 165184 6 | 36:42.35 | 2:05.67 | 165185 | 174626 7 | 38:48.27 | 5:11.23 | 174627 | 197974 8 | 43:59.50 | 3:30.65 | 197975 | 213789 9 | 47:30.40 | 4:18.10 | 213790 | 233149 10 | 51:48.50 | 2:16.25 | 233150 | 243374 11 | 54:05.00 | 14:46.02 | 243375 | 309826
Track 1
Filename D:\Narciso Yepes - Concierto De Aranjuez (1992) {FLAC]\01 - Concierto De Aranjuez - I. Allegro con spirito.wav
Pre-gap length 0:00:02.00
Peak level 81.7 % Extraction speed 1.2 X Track quality 100.0 % Test CRC 56BF0A8D Copy CRC 56BF0A8D Cannot be verified as accurate (confidence 2) [22228EF6], AccurateRip returned [6435DA07] (AR v2) Copy OK
Track 2
Filename D:\Narciso Yepes - Concierto De Aranjuez (1992) {FLAC]\02 - Concierto De Aranjuez - II. Adagio.wav
Pre-gap length 0:00:02.40
Peak level 74.9 % Extraction speed 1.5 X Track quality 100.0 % Test CRC E22CAF54 Copy CRC E22CAF54 Cannot be verified as accurate (confidence 2) [515E2472], AccurateRip returned [CCDF3194] (AR v2) Copy OK
Track 3
Filename D:\Narciso Yepes - Concierto De Aranjuez (1992) {FLAC]\03 - Concierto De Aranjuez - III. Allegro gentile.wav
Pre-gap length 0:00:02.50
Peak level 73.5 % Extraction speed 1.4 X Track quality 99.9 % Test CRC 90A8D7DD Copy CRC 90A8D7DD Cannot be verified as accurate (confidence 2) [7CB85B25], AccurateRip returned [645CB7A6] (AR v2) Copy OK
Track 4
Filename D:\Narciso Yepes - Concierto De Aranjuez (1992) {FLAC]\04 - Fantasia Para Un Gentilhombre - I. Villano y ricercari.wav
Pre-gap length 0:00:04.23
Peak level 79.5 % Extraction speed 1.7 X Track quality 100.0 % Test CRC 6582C9C7 Copy CRC 6582C9C7 Cannot be verified as accurate (confidence 2) [2F9EF699], AccurateRip returned [861FB88C] (AR v2) Copy OK
Track 5
Filename D:\Narciso Yepes - Concierto De Aranjuez (1992) {FLAC]\05 - Fantasia Para Un Gentilhombre - II. Espanoleta y fanfare de la Caballeria de Napoles.wav
Pre-gap length 0:00:02.08
Peak level 75.9 % Extraction speed 2.0 X Track quality 100.0 % Test CRC BAAA2E41 Copy CRC BAAA2E41 Cannot be verified as accurate (confidence 2) [86FC74BC], AccurateRip returned [018EA7CF] (AR v2) Copy OK
Track 6
Filename D:\Narciso Yepes - Concierto De Aranjuez (1992) {FLAC]\06 - Fantasia Para Un Gentilhombre - III. Danza de las hachas.wav
Pre-gap length 0:00:02.43
Peak level 93.4 % Extraction speed 1.7 X Track quality 100.0 % Test CRC 2DE6E29D Copy CRC 2DE6E29D Cannot be verified as accurate (confidence 2) [1CB2CFD4], AccurateRip returned [DF35B6E4] (AR v2) Copy OK
Track 7
Filename D:\Narciso Yepes - Concierto De Aranjuez (1992) {FLAC]\07 - Fantasia Para Un Gentilhombre - IV. Canario.wav
Pre-gap length 0:00:02.47
Peak level 76.9 % Extraction speed 2.0 X Track quality 100.0 % Test CRC FB9AB40E Copy CRC FB9AB40E Cannot be verified as accurate (confidence 2) [F0DE6F28], AccurateRip returned [8AC3132D] (AR v2) Copy OK
Track 8
Filename D:\Narciso Yepes - Concierto De Aranjuez (1992) {FLAC]\08 - Guitar Concerto in D Major - I. Allegro giusto.wav
Pre-gap length 0:00:04.55
Peak level 82.5 % Extraction speed 2.0 X Track quality 100.0 % Test CRC 3E35CA79 Copy CRC 3E35CA79 Cannot be verified as accurate (confidence 2) [84C018CA], AccurateRip returned [80ABA26F] (AR v2) Copy OK
Track 9
Filename D:\Narciso Yepes - Concierto De Aranjuez (1992) {FLAC]\09 - Guitar Concerto in D Major - II. Largo.wav
Pre-gap length 0:00:02.48
Peak level 43.5 % Extraction speed 2.1 X Track quality 100.0 % Test CRC 70513A5E Copy CRC 70513A5E Cannot be verified as accurate (confidence 2) [80651F13], AccurateRip returned [2CE13AD4] (AR v2) Copy OK
Track 10
Filename D:\Narciso Yepes - Concierto De Aranjuez (1992) {FLAC]\10 - Guitar Concerto in D Major - III. Allegro.wav
Pre-gap length 0:00:02.30
Peak level 90.9 % Extraction speed 1.9 X Track quality 100.0 % Test CRC DDAA8487 Copy CRC DDAA8487 Cannot be verified as accurate (confidence 2) [A73EC1A7], AccurateRip returned [57EAB7B7] (AR v2) Copy OK
Track 11
Filename D:\Narciso Yepes - Concierto De Aranjuez (1992) {FLAC]\11 - Chaconne in D Minor.wav
Pre-gap length 0:00:03.03
Peak level 52.1 % Extraction speed 2.3 X Track quality 99.9 % Test CRC 88F777FB Copy CRC 88F777FB Cannot be verified as accurate (confidence 2) [3C9B411B], AccurateRip returned [B3711EEA] (AR v2) Copy OK
No tracks could be verified as accurateYou may have a different pressing from the one(s) in the database
No errors occurred
End of status report
---- CUETools DB Plugin V2.1.3
[CTDB TOCID: dAlsjF7l8sQ6dI5XPWMQzYS5XFM-] found, Submit result: dAlsjF7l8sQ6dI5XPWMQzYS5XFM- has been confirmed[633df955] (4/4) Accurately ripped
==== Log checksum 188AD596979972A5F55BBEF343349650FE25EC5CD91B87480CAFE0C1318567D2 ====

Содержание индексной карты (.CUE)

REM GENRE ClassicalREM DATE 1992REM DISCID 7F10230BREM COMMENT "ExactAudioCopy v1.0b3"PERFORMER "Narciso Yepes"TITLE "Concierto de Aranjuez"FILE "01 - Rodrigo- Concierto de Aranjuez- I. Allegro con spirito.wav" WAVE TRACK 01 AUDIO TITLE "Rodrigo: Concierto de Aranjuez: I. Allegro con spirito" PERFORMER "Narciso Yepes" INDEX 01 00:00:00 TRACK 02 AUDIO TITLE "Rodrigo: Concierto de Aranjuez: II. Adagio" PERFORMER "Narciso Yepes" INDEX 00 05:55:42FILE "02 - Rodrigo- Concierto de Aranjuez- II. Adagio.wav" WAVE INDEX 01 00:00:00 TRACK 03 AUDIO TITLE "Rodrigo: Concierto de Aranjuez: III. Allegro gentile" PERFORMER "Narciso Yepes" INDEX 00 09:55:10FILE "03 - Rodrigo- Concierto de Aranjuez- III. Allegro gentile.wav" WAVE INDEX 01 00:00:00 TRACK 04 AUDIO TITLE "Rodrigo: Fantasia para un gentilhombre: I. Villano y ricercare" PERFORMER "Narciso Yepes" INDEX 00 05:19:30FILE "04 - Rodrigo- Fantasia para un gentilhombre- I. Villano y ricercare.wav" WAVE INDEX 01 00:00:00 TRACK 05 AUDIO TITLE "Rodrigo: Fantasia para un gentilhombre: II. Espanoleta y fanfare de la Caballeria de Napoles" PERFORMER "Narciso Yepes" INDEX 00 05:25:57FILE "05 - Rodrigo- Fantasia para un gentilhombre- II. Espanoleta y fanfare de la Caballeria de Napoles.wav" WAVE INDEX 01 00:00:00 TRACK 06 AUDIO TITLE "Rodrigo: Fantasia para un gentilhombre: III. Danza de las hachas" PERFORMER "Narciso Yepes" INDEX 00 09:52:32FILE "06 - Rodrigo- Fantasia para un gentilhombre- III. Danza de las hachas.wav" WAVE INDEX 01 00:00:00 TRACK 07 AUDIO TITLE "Rodrigo: Fantasia para un gentilhombre: IV. Canario" PERFORMER "Narciso Yepes" INDEX 00 02:03:20FILE "07 - Rodrigo- Fantasia para un gentilhombre- IV. Canario.wav" WAVE INDEX 01 00:00:00 TRACK 08 AUDIO TITLE "Vivaldi: Concerto in D major, RV.93: I. Allegro giusto" PERFORMER "Narciso Yepes" INDEX 00 05:06:43FILE "08 - Vivaldi- Concerto in D major, RV.93- I. Allegro giusto.wav" WAVE INDEX 01 00:00:00 TRACK 09 AUDIO TITLE "Vivaldi: Concerto in D major, RV.93: II. Largo" PERFORMER "Narciso Yepes" INDEX 00 03:28:17FILE "09 - Vivaldi- Concerto in D major, RV.93- II. Largo.wav" WAVE INDEX 01 00:00:00 TRACK 10 AUDIO TITLE "Vivaldi: Concerto in D major, RV.93: III. Allegro" PERFORMER "Narciso Yepes" INDEX 00 04:15:55FILE "10 - Vivaldi- Concerto in D major, RV.93- III. Allegro.wav" WAVE INDEX 01 00:00:00 TRACK 11 AUDIO TITLE "Bach: Partita in D minor, BWV 1004: 5. Chaconne in D minor" PERFORMER "Narciso Yepes" INDEX 00 02:13:22FILE "11 - Bach- Partita in D minor, BWV 1004- 5. Chaconne in D minor.wav" WAVE INDEX 01 00:00:00

Отчет CUETools

[CUETools log; Date: 14.09.2014 22:56:31; Version: 2.1.5][CTDB TOCID: dAlsjF7l8sQ6dI5XPWMQzYS5XFM-] found.Track | CTDB Status 1 | (5/5) Accurately ripped 2 | (5/5) Accurately ripped 3 | (5/5) Accurately ripped 4 | (5/5) Accurately ripped 5 | (5/5) Accurately ripped 6 | (5/5) Accurately ripped 7 | (5/5) Accurately ripped 8 | (5/5) Accurately ripped 9 | (5/5) Accurately ripped 10 | (5/5) Accurately ripped 11 | (5/5) Accurately ripped[AccurateRip ID: 001c4650-00ef9d85-7f10230b] found.Track [ CRC | V2 ] Status 01 [3e90a5b7|22228ef6] (0+0/4) No match 02 [d6503a6d|515e2472] (0+0/4) No match 03 [8852f58a|7cb85b25] (0+0/4) No match 04 [38497bdc|2f9ef699] (0+0/4) No match 05 [750a80cb|86fc74bc] (0+0/4) No match 06 [4a36646a|1cb2cfd4] (0+0/4) No match 07 [efbaa33d|f0de6f28] (0+0/4) No match 08 [9e7a1938|84c018ca] (0+0/4) No match 09 [2ee9326f|80651f13] (0+0/4) No match 10 [47e48503|a73ec1a7] (0+0/4) No match 11 [e3c88907|3c9b411b] (0+0/4) No matchOffsetted by -685: 01 [2a59cf1a] (0/4) No match (V2 was not tested) 02 [085745f3] (0/4) No match (V2 was not tested) 03 [3d05d86d] (0/4) No match (V2 was not tested) 04 [52927d79] (0/4) No match (V2 was not tested) 05 [add97bc6] (0/4) No match (V2 was not tested) 06 [96e83a24] (0/4) No match (V2 was not tested) 07 [5bb4f2c5] (0/4) No match (V2 was not tested) 08 [d599a90d] (0/4) No match (V2 was not tested) 09 [e6de6501] (0/4) No match (V2 was not tested) 10 [7adbd0c5] (0/4) No match (V2 was not tested) 11 [f6864929] (0/4) No match (V2 was not tested)Offsetted by -76: 01 [2229652b] (0/4) No match (V2 was not tested) 02 [61a81655] (0/4) No match (V2 was not tested) 03 [aeaf4efe] (0/4) No match (V2 was not tested) 04 [27c51068] (0/4) No match (V2 was not tested) 05 [63cca1df] (0/4) No match (V2 was not tested) 06 [53d7c382] (0/4) No match (V2 was not tested) 07 [639a9d1d] (0/4) No match (V2 was not tested) 08 [0a9e7ce4] (0/4) No match (V2 was not tested) 09 [32e08627] (0/4) No match (V2 was not tested) 10 [25eec3fb] (0/4) No match (V2 was not tested) 11 [9bdd967f] (0/4) No match (V2 was not tested)
Track Peak [ CRC32 ] [W/O NULL] [ LOG ] -- 93,4 [F4FB6A47] [F5E390EA] 01 81,7 [56BF0A8D] [AC67B7F9] CRC32 02 74,9 [E22CAF54] [693D08F1] CRC32 03 73,5 [90A8D7DD] [4B6F794D] CRC32 04 79,5 [6582C9C7] [B3CB5B92] CRC32 05 75,9 [BAAA2E41] [2659C4AB] CRC32 06 93,4 [2DE6E29D] [55795579] CRC32 07 76,9 [FB9AB40E] [DB27E2F7] CRC32 08 82,5 [3E35CA79] [D2D2FD1E] CRC32 09 43,5 [70513A5E] [6588A77F] CRC32 10 90,9 [DDAA8487] [53127FFD] CRC32 11 52,1 [88F777FB] [BED8A9C5] CRC32
[teatrix.ru].t9902.torrent 
Торрент: Зарегистрирован [ 2015-10-25 20:37 ] · 7173C5ECA3368BABF8288E0BFBEA61FF43C68219

Скачать .torrent

Скачать

15 KB

Статус: проверено
Скачан: 0 раз
Размер: 342 MB
terms.php



Быстрый ответ

Имя:

      
Для отправки сообщений необходимо включить JavaScript
Показать сообщения:    

Текущее время: 11-Дек 14:51

Часовой пояс: UTC + 3


Вы можете начинать темы
Вы можете отвечать на сообщения
Вы не можете редактировать свои сообщения
Вы не можете удалять свои сообщения
Вы не можете голосовать в опросах
Вы не можете прикреплять файлы к сообщениям
Вы можете скачивать файлы