(Classical) Ludwig van Beethoven — Violin Concerto Op 61 • Overtures (Isaac Stern; Leonard Bernstein) — 2002, APE (image+.cue) lossless


Статистика раздачи [Обновить пиров]
Размер:  331 MB   |    Зарегистрирован:  1 год 1 месяц   |    Скачан:  0 раз

Полного источника не было: Никогда

 
   
 
 
 

[Цитировать]

Violin Concerto Op 61 • Overtures- Жанр: Classical
Страна-производитель диска: Россия
Год издания диска: 2002
Издатель (лейбл): Private Area
Композитор: Ludwig van Beethoven
Аудио кодек: ape
Тип рипа: image+.cue
Битрейт аудио: lossless
Продолжительность: 01h07'16"
Источник: собственный рип
Наличие сканов в содержимом раздачи: нет-Треклист:
Violin Concerto D-Dur Op 61
01. I. Allegro ma non troppo [00h23'52"]
02. II. Larghetto [00h10'48"]
03. III. Rondo. Allegro [00h09'20"]
New York Philharmonic – cond. Leonard Bernstein, Violin – Isaac Stern
04. Overture «The Consecration of the House» Op 124 [00h10'04"]
05. Overture «Leonore III» Op 72a [00h13'12"]
New York Philharmonic – cond. Leonard Bernstein-

EAC log

Exact Audio Copy V0.99 prebeta 5 from 4. May 2009
Отчёт EAC об извлечении, выполненном 14. сентября 2014, 23:36
Beethoven / Violin Concerto & Overtures
Дисковод: PIONEER DVD-RW  DVR-111D   Adapter: 1  ID: 0
Режим чтения                 : Достоверность
Использование точного потока : Да
Отключение кэша аудио        : Да
Использование указателей C2  : Нет
Коррекция смещения при чтении                     : 48
Способность читать области Lead-in и Lead-out     : Нет
Заполнение пропущенных сэмплов тишиной            : Да
Удаление блоков с тишиной в начале и конце        : Нет
При вычислениях CRC использовались нулевые сэмплы : Да
Интерфейс                                         : Установленный внешний ASPI-интерфейс
Выходной формат          : Monkey's Audio (без потерь)
Выбранный битрейт        : Normal Lossless Compression
Качество                 : Высокий
Добавление ID3-тэга      : Нет
Утилита сжатия           : C:\Program Files\Monkey's Audio\MAC.exe
TOC извлечённого CD
     Трек |   Старт  | Длительность | Начальный сектор | Конечный сектор
    ---------------------------------------------------------------------
       1  |  0:00.00 |   23:52.10   |           0      |     107409
       2  | 23:52.10 |   10:47.57   |      107410      |     155991
       3  | 34:39.67 |    9:20.33   |      155992      |     198024
       4  | 44:00.25 |   10:04.00   |      198025      |     243324
       5  | 54:04.25 |   13:11.65   |      243325      |     302714
Характеристики диапазона извлечения и сообщения об ошибках
Выбранный диапазон
     Имя файла D:\Музыка lossless\Beethoven Violin Concerto Bernstein\Beethoven - Violin Concerto & Overtures.wav
     Пиковый уровень 100.0 %
     Качество диапазона 100.0 %
     CRC теста CFA1FB90
     CRC копии CFA1FB90
     Копирование... OK
Ошибок не произошло
AccurateRip: сводка
Трек  1  точность не определена (достоверность 17)  [F3D64A0A], AccurateRip вернул [55C94BF1]
Трек  2  точность не определена (достоверность 17)  [B98691A2], AccurateRip вернул [54896F11]
Трек  3  точность не определена (достоверность 17)  [79263BC0], AccurateRip вернул [B7F35607]
Трек  4  точность не определена (достоверность 17)  [433133FC], AccurateRip вернул [B8C16B2C]
Трек  5  точность не определена (достоверность 17)  [037B9BDA], AccurateRip вернул [F70F2A83]
Ни один трек не прошёл проверки на точность
В вашей базе может быть иной вариант штамповки диска
Конец отчёта

-

CUE

REM GENRE Classical
REM DATE 2002
REM DISCID 360FC405
REM COMMENT "ExactAudioCopy v0.99pb5"
PERFORMER "Beethoven"
TITLE "Violin Concerto & Overtures"
FILE "Beethoven - Violin Concerto & Overtures.ape" WAVE
  TRACK 01 AUDIO
    TITLE "Violin Concerto D-Dur Op 61 – I. Allegro ma non troppo"
    PERFORMER "Beethoven"
    INDEX 01 00:00:00
  TRACK 02 AUDIO
    TITLE "Violin Concerto D-Dur Op 61 – II. Larghetto"
    PERFORMER "Beethoven"
    INDEX 00 23:50:10
    INDEX 01 23:52:10
  TRACK 03 AUDIO
    TITLE "Violin Concerto D-Dur Op 61 – III. Rondo. Allegro"
    PERFORMER "Beethoven"
    INDEX 01 34:39:67
  TRACK 04 AUDIO
    TITLE "Overture «The Consecration of the House» Op 124"
    PERFORMER "Beethoven"
    INDEX 00 43:58:25
    INDEX 01 44:00:25
  TRACK 05 AUDIO
    TITLE "Overture «Leonore III» Op 72a"
    PERFORMER "Beethoven"
    INDEX 00 54:02:25
    INDEX 01 54:04:25
-
[teatrix.ru].t9903.torrent 
Торрент: Зарегистрирован [ 2015-10-25 20:37 ] · EF955C5AF410208BB5CDCDD6DA0855872A75F99C

Скачать .torrent

Скачать

14 KB

Статус: проверено
Скачан: 0 раз
Размер: 331 MB
terms.php



Быстрый ответ

Имя:

      
Для отправки сообщений необходимо включить JavaScript
Показать сообщения:    

Текущее время: 07-Дек 13:38

Часовой пояс: UTC + 3


Вы можете начинать темы
Вы можете отвечать на сообщения
Вы не можете редактировать свои сообщения
Вы не можете удалять свои сообщения
Вы не можете голосовать в опросах
Вы не можете прикреплять файлы к сообщениям
Вы можете скачивать файлы