(Classical) Antonio Vivaldi - Le quattro stagioni(Ed:Vittorio Negri) 1959 , "L'amoroso" 1958 (Felix Ayo; I Musici) - 2001, FLAC (image+.cue) lossless


Статистика раздачи [Обновить пиров]
Размер:  297 MB   |    Зарегистрирован:  1 год 1 месяц   |    Скачан:  0 раз

Полного источника не было: Никогда

 
   
 
 
 

[Цитировать]

Antonio Vivaldi - Le quattro stagioni (Ed:Vittorio Negri) 1959,
"L'amoroso" 1958(Felix Ayo; I Musici)
Antonio Vivaldi (1678-1741) Жанр: Classical
Страна-производитель диска: Germany
Год издания диска: 2001
Издатель (лейбл): Decca
Номер по каталогу: 464 750-2
Дата записи: 1958-1959
Аудиокодек: FLAC
Тип рипа: image+.cue
Битрейт аудио: lossless
Продолжительность: 0:57:28
Источник: terja
Наличие сканов в содержимом раздачи: да
Треклист:Concertos for violin, strings and continuoLe quattro stagioni (Edition: Vittorio Negri)
Concertos 1-4 from Il Cimento dell'Armonia e dell'Invenzione, op.8
No. 1 in E major, RV 269 "la primavera"
01. I. Allegro (3:46)
02. II. largo (2:59)
03. III. Allegro (Danza pastorale) (4:41)
No.2 in G minor, RV315 "L'estate"
04. I. Allegro non molto — Allegro (5:18)
05. II. Adagio — Presto — Adagio (2:22)
06. III. Presto (Tempo impetuoso d'estate) (2:51)
No.3 in F major, RV 293 "L'autunno"
07. I. Allegro (Ballo, e canto de'villanelli) (5:57)
08. II. Adagio molto (Ubriachi dormienti) (2:42)
09. III. Allegro (La caccia) (3:42)
No.4 in F minor, RV 297 "L'inverno"
10. I. Allegro non molto (3:20)
11. II. Largo (2:39)
12. III. Allegro (3:02)
Concerto in E major, RV 271 "L'amoroso" (Edition: Michelangelo Abbado)
13. I. Allegro (5:24)
14. II. Cantabile (3:50)
15. III. Allegro (4:10)
Rec: 1-12 5/1959 Vienna
13-15 1/1958 Milan
Исполнители:
Felix Ayo violin
I MUSICI

Лог создания рипа

Exact Audio Copy V1.0 beta 3 from 29. August 2011
Отчёт EAC об извлечении, выполненном 10. сентября 2014, 20:16
Ayo I Musici / Vivaldi The Four Seasons
Дисковод: PIONEER BD-RW BDR-206D Adapter: 0 ID: 0
Режим чтения : ДостоверностьИспользование точного потока : ДаОтключение кэша аудио : ДаИспользование указателей C2 : Нет
Коррекция смещения при чтении : 667Способность читать области Lead-in и Lead-out : ДаЗаполнение пропущенных сэмплов тишиной : ДаУдаление блоков с тишиной в начале и конце : НетПри вычислениях CRC использовались нулевые сэмплы : ДаИнтерфейс : Встроенный Win32-интерфейс для Win NT/2000
Выходной формат : Внутренние WAV-операцииФормат сэмплов : 44.100 Гц; 16 бит; стерео
TOC извлечённого CD
Трек | Старт | Длительность | Начальный сектор | Конечный сектор --------------------------------------------------------------------- 1 | 0:00.00 | 3:47.22 | 0 | 17046 2 | 3:47.22 | 3:00.03 | 17047 | 30549 3 | 6:47.25 | 4:44.69 | 30550 | 51918 4 | 11:32.19 | 5:19.62 | 51919 | 75905 5 | 16:52.06 | 2:23.25 | 75906 | 86655 6 | 19:15.31 | 2:55.70 | 86656 | 99850 7 | 22:11.26 | 5:59.00 | 99851 | 126775 8 | 28:10.26 | 2:44.05 | 126776 | 139080 9 | 30:54.31 | 3:47.32 | 139081 | 156137 10 | 34:41.63 | 3:22.27 | 156138 | 171314 11 | 38:04.15 | 2:40.37 | 171315 | 183351 12 | 40:44.52 | 3:10.35 | 183352 | 197636 13 | 43:55.12 | 5:26.42 | 197637 | 222128 14 | 49:21.54 | 3:54.30 | 222129 | 239708 15 | 53:16.09 | 4:09.26 | 239709 | 258409
Характеристики диапазона извлечения и сообщения об ошибках
Выбранный диапазон
Имя файла C:\Users\Сергей Терещенко\Desktop\Ayo I Musici - Vivaldi The Four Seasons.wav
Пиковый уровень 98.5 % Скорость извлечения 7.3 X Качество диапазона 99.9 % CRC копии 9D527E06 Копирование... OK
Ошибок не произошло
AccurateRip: сводка
Трек 1 : извлечено точно (доверие 8) [790FE9CB] (AR v2)Трек 2 : извлечено точно (доверие 8) [B3A77E73] (AR v2)Трек 3 : извлечено точно (доверие 8) [3F177F16] (AR v2)Трек 4 : извлечено точно (доверие 8) [3C230CCE] (AR v2)Трек 5 : извлечено точно (доверие 8) [BAB9D7E9] (AR v2)Трек 6 : извлечено точно (доверие 8) [04984CF3] (AR v2)Трек 7 : извлечено точно (доверие 8) [6739ECA8] (AR v2)Трек 8 : извлечено точно (доверие 8) [EF7C9FDC] (AR v2)Трек 9 : извлечено точно (доверие 8) [03645352] (AR v2)Трек 10 : извлечено точно (доверие 8) [35B26AFC] (AR v2)Трек 11 : извлечено точно (доверие 8) [FBDB8DF1] (AR v2)Трек 12 : извлечено точно (доверие 8) [AAEF45D4] (AR v2)Трек 13 : извлечено точно (доверие 8) [04259DEB] (AR v2)Трек 14 : извлечено точно (доверие 8) [48204667] (AR v2)Трек 15 : извлечено точно (доверие 8) [A2C44408] (AR v2)
Все треки извлечены точно
Конец отчёта
---- CUETools DB Plugin V2.1.4
[CTDB TOCID: T_0QerBet6xmBVJtDy3v5x1Q7cY-] foundSubmit result: T_0QerBet6xmBVJtDy3v5x1Q7cY- has been confirmedTrack | CTDB Status 1 | (18/24) Accurately ripped 2 | (18/24) Accurately ripped 3 | (18/24) Accurately ripped 4 | (18/24) Accurately ripped 5 | (18/24) Accurately ripped 6 | (18/24) Accurately ripped 7 | (18/24) Accurately ripped 8 | (18/24) Accurately ripped 9 | (18/24) Accurately ripped 10 | (18/24) Accurately ripped 11 | (18/24) Accurately ripped 12 | (18/24) Accurately ripped 13 | (18/24) Accurately ripped 14 | (18/24) Accurately ripped 15 | (18/24) Accurately ripped
==== Контрольная сумма отчёта DC0D8D93F563328EC3625B81E8895CA4D597DFE9479BC309CE5862CB5361A12F ====

Лог проверки качества

Скриншот спектра частот

[teatrix.ru].t9904.torrent 
Торрент: Зарегистрирован [ 2015-10-25 20:37 ] · 95E8EA835BBD2E1B8A22EE5E25F84B1AFD0C0A96

Скачать .torrent

Скачать

13 KB

Статус: проверено
Скачан: 0 раз
Размер: 297 MB
terms.php



Быстрый ответ

Имя:

      
Для отправки сообщений необходимо включить JavaScript
Показать сообщения:    

Текущее время: 04-Дек 04:59

Часовой пояс: UTC + 3


Вы можете начинать темы
Вы можете отвечать на сообщения
Вы не можете редактировать свои сообщения
Вы не можете удалять свои сообщения
Вы не можете голосовать в опросах
Вы не можете прикреплять файлы к сообщениям
Вы можете скачивать файлы