(Classical) W.A.Mozart — Piano Concertos № 1, 12 & 13 (KV 37, 414 & 415) (Vladimir Krainev / Владимир Крайнев; Saulius Sondeckis / Саулюс Сондецкис) — 1990, APE (image+.cue) lossless


Статистика раздачи [Обновить пиров]
Размер:  204 MB   |    Зарегистрирован:  1 год 1 месяц   |    Скачан:  0 раз

Полного источника не было: Никогда

 
   
 
 
 

[Цитировать]

Piano Concertos № 1, 12 & 13 (KV 37, 414 & 415)- Жанр: Classical
Страна-производитель диска: СССР
Год издания диска: 1990
Год записи фонограммы: 1986
Издатель (лейбл): Грамзапись
Номер по каталогу: GCD 00083
Композитор: Wolfgang Amadeus Mozart
Аудио кодек: ape
Тип рипа: image+.cue
Битрейт аудио: lossless
Продолжительность: 01h04'29"
Источник: собственный рип
Наличие сканов в содержимом раздачи: нет-Треклист:
Piano Concerto № 1 F-Dur KV 37
01. I. Allegro [00h04'41"]
02. II. Andante [00h06'44"]
03. III. Allegro [00h05'42"]
Piano Concerto № 12 A-Dur KV 414
04. I. Allegro [00h09'28"]
05. II. Andante [00h07'42"]
06. III. Allegretto [00h05'58"]
Piano Concerto № 13 C-Dur KV 415
07. I. Allegro [00h09'46"]
08. II. Andante [00h07'38"]
09. III. Allegro [00h06'50"]
Lithuanian Chamber Orchestra, cond. Saulius Sondeckis / Саулюс Сондецкис, Piano – Vladimir Krainev / Владимир Крайнев-

EAC log

Exact Audio Copy V0.99 prebeta 5 from 4. May 2009
Отчёт EAC об извлечении, выполненном 14. сентября 2014, 3:08
Mozart / Piano Concertos Krainev
Дисковод: MITSUMI CR-486ETE   Adapter: 0  ID: 0
Режим чтения                 : Достоверность
Использование точного потока : Да
Отключение кэша аудио        : Да
Использование указателей C2  : Нет
Коррекция смещения при чтении                     : 6
Способность читать области Lead-in и Lead-out     : Нет
Заполнение пропущенных сэмплов тишиной            : Да
Удаление блоков с тишиной в начале и конце        : Нет
При вычислениях CRC использовались нулевые сэмплы : Да
Интерфейс                                         : Установленный внешний ASPI-интерфейс
Выходной формат          : Monkey's Audio (без потерь)
Выбранный битрейт        : Normal Lossless Compression
Качество                 : Высокий
Добавление ID3-тэга      : Нет
Утилита сжатия           : C:\Program Files\Monkey's Audio\MAC.exe
TOC извлечённого CD
     Трек |   Старт  | Длительность | Начальный сектор | Конечный сектор
    ---------------------------------------------------------------------
       1  |  0:00.00 |    4:41.13   |           0      |      21087
       2  |  4:41.13 |    6:44.00   |       21088      |      51387
       3  | 11:25.13 |    5:42.00   |       51388      |      77037
       4  | 17:07.13 |    9:28.00   |       77038      |     119637
       5  | 26:35.13 |    7:41.50   |      119638      |     154262
       6  | 34:16.63 |    5:58.25   |      154263      |     181137
       7  | 40:15.13 |    9:46.00   |      181138      |     225087
       8  | 50:01.13 |    7:37.62   |      225088      |     259424
       9  | 57:39.00 |    6:49.38   |      259425      |     290137
Характеристики диапазона извлечения и сообщения об ошибках
Выбранный диапазон
     Имя файла D:\Музыка lossless\Mozart Piano Concertos Krainev\Mozart - Piano Concertos Krainev.wav
     Пиковый уровень 61.5 %
     Качество диапазона 100.0 %
     CRC теста D6621031
     CRC копии D6621031
     Копирование... OK
Ошибок не произошло
AccurateRip: сводка
Трек  1  точность не определена (достоверность 1)  [80D5EBFC], AccurateRip вернул [A0CCB9F4]
Трек  2  точность не определена (достоверность 1)  [66AF51A2], AccurateRip вернул [E41F8A92]
Трек  3  точность не определена (достоверность 1)  [1F9BAADF], AccurateRip вернул [96F1C9FF]
Трек  4  точность не определена (достоверность 1)  [9661C990], AccurateRip вернул [0D39B3E8]
Трек  5  точность не определена (достоверность 1)  [6F3873D0], AccurateRip вернул [7D00BC40]
Трек  6  точность не определена (достоверность 1)  [6C1FFAD9], AccurateRip вернул [F9C6F3C8]
Трек  7  точность не определена (достоверность 1)  [5F9390C2], AccurateRip вернул [C8BB5DDA]
Трек  8  точность не определена (достоверность 1)  [171A815E], AccurateRip вернул [50A1BCA6]
Трек  9  точность не определена (достоверность 1)  [F1FC3BDF], AccurateRip вернул [E264530A]
Ни один трек не прошёл проверки на точность
В вашей базе может быть иной вариант штамповки диска
Конец отчёта

-

CUE

REM GENRE Classical
REM DATE 1990
REM DISCID 770F1C09
REM COMMENT "ExactAudioCopy v0.99pb5"
PERFORMER "Mozart"
TITLE "Piano Concertos Krainev"
FILE "Mozart - Piano Concertos Krainev.ape" WAVE
  TRACK 01 AUDIO
    TITLE "Piano Concerto № 1 F-Dur KV 37 – I. Allegro"
    PERFORMER "Mozart"
    INDEX 01 00:00:00
  TRACK 02 AUDIO
    TITLE "Piano Concerto № 1 F-Dur KV 37 – II. Andante"
    PERFORMER "Mozart"
    INDEX 00 04:39:13
    INDEX 01 04:41:13
  TRACK 03 AUDIO
    TITLE "Piano Concerto № 1 F-Dur KV 37 – III. Allegro"
    PERFORMER "Mozart"
    INDEX 00 11:22:63
    INDEX 01 11:25:13
  TRACK 04 AUDIO
    TITLE "Piano Concerto № 12 A-Dur KV 414 – I. Allegro"
    PERFORMER "Mozart"
    INDEX 00 17:02:13
    INDEX 01 17:07:13
  TRACK 05 AUDIO
    TITLE "Piano Concerto № 12 A-Dur KV 414 – II. Andante"
    PERFORMER "Mozart"
    INDEX 00 26:32:38
    INDEX 01 26:35:13
  TRACK 06 AUDIO
    TITLE "Piano Concerto № 12 A-Dur KV 414 – III. Allegretto"
    PERFORMER "Mozart"
    INDEX 00 34:15:13
    INDEX 01 34:16:63
  TRACK 07 AUDIO
    TITLE "Piano Concerto № 13 C-Dur KV 415 – I. Allegro"
    PERFORMER "Mozart"
    INDEX 00 40:10:63
    INDEX 01 40:15:13
  TRACK 08 AUDIO
    TITLE "Piano Concerto № 13 C-Dur KV 415 – II. Andante"
    PERFORMER "Mozart"
    INDEX 00 49:59:13
    INDEX 01 50:01:13
  TRACK 09 AUDIO
    TITLE "Piano Concerto № 13 C-Dur KV 415 – III. Allegro"
    PERFORMER "Mozart"
    INDEX 00 57:37:13
    INDEX 01 57:39:00
-
[teatrix.ru].t9905.torrent 
Торрент: Зарегистрирован [ 2015-10-25 20:37 ] · 3DFC810CBD3F17A98F6D33BF934874CC58D0CEA6

Скачать .torrent

Скачать

17 KB

Статус: проверено
Скачан: 0 раз
Размер: 204 MB
terms.php



Быстрый ответ

Имя:

      
Для отправки сообщений необходимо включить JavaScript
Показать сообщения:    

Текущее время: 09-Дек 08:46

Часовой пояс: UTC + 3


Вы можете начинать темы
Вы можете отвечать на сообщения
Вы не можете редактировать свои сообщения
Вы не можете удалять свои сообщения
Вы не можете голосовать в опросах
Вы не можете прикреплять файлы к сообщениям
Вы можете скачивать файлы