(Classical) W.A.Mozart — 2 & 3 Pianos Concertos (KV 365 & 242) (Tatiana Nikolaeva / Татьяна Николаева, Eliso Virsaladze / Элисо Вирсаладзе, Nikolai Luganski / Николай Луганский) — 1990, APE (image+.cue) lossless


Статистика раздачи [Обновить пиров]
Размер:  165 MB   |    Зарегистрирован:  1 год 1 месяц   |    Скачан:  0 раз

Полного источника не было: Никогда

 
   
 
 
 

[Цитировать]

2 & 3 Pianos Concertos (KV 365 & 242)-
Жанр: Classical
Страна-производитель диска: СССР
Год издания диска: 1990
Дата записи фонограммы: 07.02.1986
Издатель (лейбл): Грамзапись
Номер по каталогу: GCD 00037
Композитор: Wolfgang Amadeus Mozart
Аудио кодек: ape
Тип рипа: image+.cue
Битрейт аудио: lossless
Продолжительность: 00h50'09"
Источник: собственный рип
Наличие сканов в содержимом раздачи: да-Треклист:
2 Pianos Concerto № 10 Es-Dur KV 365
01. I. Allegro [00h10'31"]
02. II. Andante [00h07'40"]
03. III. Rondo. Allegro [00h07'46"]
3 Pianos Concerto № 7 F-Dur KV 242
04. I. Allegro [00h08'48"]
05. II. Adagio [00h09'08"]
06. III. Rondo. Tempo di minuetto [00h06'16"]
Lithuanian Chamber Orchestra, cond. Saulius Sondeckis / Саулюс Сондецкис, Piano – Tatiana Nikolaeva / Татьяна Николаева, Eliso Virsaladze / Элисо Вирсаладзе, Nikolai Luganski / Николай Луганский (KV 242)-

EAC log

Exact Audio Copy V0.99 prebeta 5 from 4. May 2009
Отчёт EAC об извлечении, выполненном 14. сентября 2014, 0:58
Mozart / 2 & 3 Pianos Concertos
Дисковод: PIONEER DVD-RW  DVR-111D   Adapter: 1  ID: 0
Режим чтения                 : Достоверность
Использование точного потока : Да
Отключение кэша аудио        : Да
Использование указателей C2  : Нет
Коррекция смещения при чтении                     : 48
Способность читать области Lead-in и Lead-out     : Нет
Заполнение пропущенных сэмплов тишиной            : Да
Удаление блоков с тишиной в начале и конце        : Нет
При вычислениях CRC использовались нулевые сэмплы : Да
Интерфейс                                         : Установленный внешний ASPI-интерфейс
Выходной формат          : Monkey's Audio (без потерь)
Выбранный битрейт        : Normal Lossless Compression
Качество                 : Высокий
Добавление ID3-тэга      : Нет
Утилита сжатия           : C:\Program Files\Monkey's Audio\MAC.exe
TOC извлечённого CD
     Трек |   Старт  | Длительность | Начальный сектор | Конечный сектор
    ---------------------------------------------------------------------
       1  |  0:00.00 |   10:30.50   |           0      |      47299
       2  | 10:30.50 |    7:40.00   |       47300      |      81799
       3  | 18:10.50 |    7:46.12   |       81800      |     116761
       4  | 25:56.62 |    8:48.00   |      116762      |     156361
       5  | 34:44.62 |    9:08.13   |      156362      |     197474
       6  | 43:53.00 |    6:16.12   |      197475      |     225686
Характеристики диапазона извлечения и сообщения об ошибках
Выбранный диапазон
     Имя файла D:\Музыка lossless\Mozart 2 & 3 Pianos Concertos Sondeckis\Mozart - 2 & 3 Pianos Concertos.wav
     Пиковый уровень 70.9 %
     Качество диапазона 99.9 %
     CRC теста 75290C63
     CRC копии 75290C63
     Копирование... OK
Ошибок не произошло
AccurateRip: сводка
Трек  1  точное извлечение (доверие 8)  [C3A6268E]
Трек  2  точное извлечение (доверие 8)  [DE89790F]
Трек  3  точное извлечение (доверие 8)  [223B5BDB]
Трек  4  точное извлечение (доверие 7)  [3E5AF19A]
Трек  5  точное извлечение (доверие 7)  [AFF57648]
Трек  6  точное извлечение (доверие 6)  [DFFB4933]
Все треки извлечены точно
Конец отчёта

-

CUE

REM GENRE Classical
REM DATE 1990
REM DISCID 4C0BC106
REM COMMENT "ExactAudioCopy v0.99pb5"
PERFORMER "Mozart"
TITLE "2 & 3 Pianos Concerto № 7s"
FILE "Mozart - 2 & 3 Pianos Concerto № 7s.ape" WAVE
  TRACK 01 AUDIO
    TITLE "2 Pianos Concerto № 10 Es-Dur KV 365 – I. Allegro"
    PERFORMER "Mozart"
    INDEX 01 00:00:00
  TRACK 02 AUDIO
    TITLE "2 Pianos Concerto № 10 Es-Dur KV 365 – II. Andante"
    PERFORMER "Mozart"
    INDEX 00 10:26:50
    INDEX 01 10:30:50
  TRACK 03 AUDIO
    TITLE "2 Pianos Concerto № 10 Es-Dur KV 365 – III. Rondo. Allegro"
    PERFORMER "Mozart"
    INDEX 00 18:07:62
    INDEX 01 18:10:50
  TRACK 04 AUDIO
    TITLE "3 Pianos Concerto № 7 F-Dur KV 242 – I. Allegro"
    PERFORMER "Mozart"
    INDEX 00 25:55:25
    INDEX 01 25:56:62
  TRACK 05 AUDIO
    TITLE "3 Pianos Concerto № 7 F-Dur KV 242 – II. Adagio"
    PERFORMER "Mozart"
    INDEX 00 34:40:00
    INDEX 01 34:44:62
  TRACK 06 AUDIO
    TITLE "3 Pianos Concerto № 7 F-Dur KV 242 – III. Rondo. Tempo di minuetto"
    PERFORMER "Mozart"
    INDEX 00 43:51:12
    INDEX 01 43:53:00
-
[teatrix.ru].t9906.torrent 
Торрент: Зарегистрирован [ 2015-10-25 20:37 ] · 4EE852B904B33D96FFA4D74B1D48EAA597F0FA00

Скачать .torrent

Скачать

14 KB

Статус: проверено
Скачан: 0 раз
Размер: 165 MB
terms.php



Быстрый ответ

Имя:

      
Для отправки сообщений необходимо включить JavaScript
Показать сообщения:    

Текущее время: 06-Дек 22:57

Часовой пояс: UTC + 3


Вы можете начинать темы
Вы можете отвечать на сообщения
Вы не можете редактировать свои сообщения
Вы не можете удалять свои сообщения
Вы не можете голосовать в опросах
Вы не можете прикреплять файлы к сообщениям
Вы можете скачивать файлы