(Classical) W.A.Mozart / G.Tartini — Violin Concerto № 5 KV 219 / Violin Sonata g-moll «Il Trillo del Diavolo» (Sergei Krylov / Сергей Крылов; Saulius Sondeckis / Саулюс Сондецкис) — 1990, APE (image+.cue) lossless


Статистика раздачи [Обновить пиров]
Размер:  184 MB   |    Зарегистрирован:  1 год 1 месяц   |    Скачан:  0 раз

Полного источника не было: Никогда

 
   
 
 
 

[Цитировать]

Violin Concerto № 5 KV 219 / Violin Sonata g-moll «Il Trillo del Diavolo»- Жанр: Classical
Страна-производитель диска: СССР
Год издания диска: 1990
Год записи фонограммы: 1988
Издатель (лейбл): Грамзапись
Номер по каталогу: GCD 00016
Композитор: Wolfgang Amadeus Mozart
Аудио кодек: ape
Тип рипа: image+.cue
Битрейт аудио: lossless
Продолжительность: 00h48'09"
Источник: собственный рип
Наличие сканов в содержимом раздачи: нет-Треклист:
Wolfgang Amadeus Mozart
Violin Concerto № 5 A-Dur KV 219
01. I. Allegro aperto [00h10'25"]
02. II. Adagio [00h11'45"]
03. III. Rondeau. Tempo di menuetto [00h09'37"]
Giuseppe Tartini
04. Violin Sonata g-moll «Il Trillo del Diavolo» (Transcription for Violin and String Orchestra by H.Kauder / Переложение для скрипки и струнного оркестра Х.Каудера) [00h16'22"]
Lithuanian Chamber Orchestra, cond. Saulius Sondeckis / Саулюс Сондецкис, Violin – Sergei Krylov / Сергей Крылов-

EAC log

Exact Audio Copy V0.99 prebeta 5 from 4. May 2009
Отчёт EAC об извлечении, выполненном 13. сентября 2014, 23:34
Mozart Tartini / Sergei Krylov
Дисковод: MITSUMI CR-486ETE   Adapter: 0  ID: 0
Режим чтения                 : Достоверность
Использование точного потока : Да
Отключение кэша аудио        : Да
Использование указателей C2  : Нет
Коррекция смещения при чтении                     : 6
Способность читать области Lead-in и Lead-out     : Нет
Заполнение пропущенных сэмплов тишиной            : Да
Удаление блоков с тишиной в начале и конце        : Нет
При вычислениях CRC использовались нулевые сэмплы : Да
Интерфейс                                         : Установленный внешний ASPI-интерфейс
Выходной формат          : Monkey's Audio (без потерь)
Выбранный битрейт        : Normal Lossless Compression
Качество                 : Высокий
Добавление ID3-тэга      : Нет
Утилита сжатия           : C:\Program Files\Monkey's Audio\MAC.exe
TOC извлечённого CD
     Трек |   Старт  | Длительность | Начальный сектор | Конечный сектор
    ---------------------------------------------------------------------
       1  |  0:00.00 |   10:25.00   |           0      |      46874
       2  | 10:25.00 |   11:45.00   |       46875      |      99749
       3  | 22:10.00 |    9:36.50   |       99750      |     142999
       4  | 31:46.50 |   16:22.25   |      143000      |     216674
Характеристики диапазона извлечения и сообщения об ошибках
Выбранный диапазон
     Имя файла D:\Музыка lossless\Mozart Tartini Sergei Krylov\Mozart Tartini - Sergei Krylov.wav
     Пиковый уровень 61.0 %
     Качество диапазона 99.9 %
     CRC теста 571FC617
     CRC копии 571FC617
     Копирование... OK
Ошибок не произошло
AccurateRip: сводка
Трек  1  точное извлечение (доверие 1)  [9FFD5C32]
Трек  2  точное извлечение (доверие 1)  [C755912C]
Трек  3  точное извлечение (доверие 1)  [1DA8ECF3]
Трек  4  точное извлечение (доверие 1)  [DAD3A33E]
Все треки извлечены точно
Конец отчёта

-

CUE

REM GENRE Classical
REM DATE 1990
REM DISCID 2C0B4904
REM COMMENT "ExactAudioCopy v0.99pb5"
PERFORMER "Mozart Tartini"
TITLE "Sergei Krylov"
FILE "Mozart Tartini - Sergei Krylov.ape" WAVE
  TRACK 01 AUDIO
    TITLE "Violin Concerto № 5 A-Dur KV 219 – I. Allegro aperto"
    PERFORMER "Mozart"
    INDEX 01 00:00:00
  TRACK 02 AUDIO
    TITLE "Violin Concerto № 5 A-Dur KV 219 – II. Adagio"
    PERFORMER "Mozart"
    INDEX 00 10:15:50
    INDEX 01 10:25:00
  TRACK 03 AUDIO
    TITLE "Violin Concerto № 5 A-Dur KV 219 – III. Rondeau. Tempo di menuetto"
    PERFORMER "Mozart"
    INDEX 00 22:00:00
    INDEX 01 22:10:00
  TRACK 04 AUDIO
    TITLE "Violin Sonata g-moll «Il Trillo del Diavolo»"
    PERFORMER "Tartini"
    INDEX 00 31:38:00
    INDEX 01 31:46:50
-
[teatrix.ru].t9907.torrent 
Торрент: Зарегистрирован [ 2015-10-25 20:37 ] · 27BD803CC611E17DA962FF30CE40A4B08DF1016E

Скачать .torrent

Скачать

15 KB

Статус: проверено
Скачан: 0 раз
Размер: 184 MB
terms.php



Быстрый ответ

Имя:

      
Для отправки сообщений необходимо включить JavaScript
Показать сообщения:    

Текущее время: 10-Дек 00:18

Часовой пояс: UTC + 3


Вы можете начинать темы
Вы можете отвечать на сообщения
Вы не можете редактировать свои сообщения
Вы не можете удалять свои сообщения
Вы не можете голосовать в опросах
Вы не можете прикреплять файлы к сообщениям
Вы можете скачивать файлы