(Classical) Nemanja Radulovic - Les 5 saisons {Vivaldi - The Four Seasons, Sedlar - Spring in Japan} - 2011, FLAC (tracks+.cue), lossless


Статистика раздачи [Обновить пиров]
Размер:  225 MB   |    Зарегистрирован:  1 год 1 месяц   |    Скачан:  1 раз

Полного источника не было: 7 дней

 
   
 
 
 

[Цитировать]

Nemanja Radulovic - Les 5 saisons
Жанр: Classical
Страна-производитель диска: Франция
Год издания диска: 2011
Издатель (лейбл): Decca
Аудиокодек: FLAC
Тип рипа: tracks+.cue
Битрейт аудио: lossless
Продолжительность: 48:32
Источник (релизер): thebestal (what)
Наличие сканов в содержимом раздачи: нет
Треклист:
Vivaldi: Le quattro stagioni
La Primavera
01. 1. Allegro (3:22)
02. 2. Largo (2:43)
03. 3. Allegro (Danza pastorale) (4:40)
L'Estate
04. 1. Allegro non molto - Allegro (4:45)
05. 2. Adagio - Presto - Adagio (2:15)
06. 3. Presto (Tempo impetuoso d'estate) (2:34)
L'Autunno
07. 1. Allegro (Ballo, e canto de' villanelli) (4:54)
08. 2. Adagio molto (Ubriachi dormienti) (2:21)
09. 3. Allegro (La caccia) (3:14)
L'Inverno
10. 1. Allegro non molto (2:59)
11. 2. Largo (1:52)
12. 3. Allegro (3:10)
13. Sedlar: Spring in Japan 2011 (9:43)
Исполнители:
Nemanja Radulovic - violin
Double Sens Orchestra (#1-12)
Devil's Trills (#13)

Лог создания рипа

Exact Audio Copy V1.0 beta 3 from 29. August 2011
EAC extraction logfile from 11. February 2012, 23:41
Nemanja Radulovic / Les 5 saisons
Used drive : HL-DT-STRW/DVD GCC-4247N Adapter: 1 ID: 0
Read mode : SecureUtilize accurate stream : YesDefeat audio cache : YesMake use of C2 pointers : No
Read offset correction : 102Overread into Lead-In and Lead-Out : NoFill up missing offset samples with silence : YesDelete leading and trailing silent blocks : NoNull samples used in CRC calculations : YesUsed interface : Native Win32 interface for Win NT & 2000Gap handling : Appended to previous track
Used output format : User Defined EncoderSelected bitrate : 1024 kBit/sQuality : HighAdd ID3 tag : NoCommand line compressor : C:\Program Files\Exact Audio Copy\Flac\flac.exeAdditional command line options : -8 -V -T "ARTIST=%artist%" -T "TITLE=%title%" -T "ALBUM=%albumtitle%" -T "DATE=%year%" -T "TRACKNUMBER=%tracknr%" -T "GENRE=%genre%" -T "PERFORMER=%albuminterpret%" -T "COMPOSER=%composer%" %haslyrics%--tag-from-file=LYRICS="%lyricsfile%"%haslyrics% -T "ALBUMARTIST=%albumartist%" -T "DISCNUMBER=%cdnumber%" -T "TOTALDISCS=%totalcds%" -T "TOTALTRACKS=%numtracks%" -T "COMMENT=%comment%" %source% -o %dest%
TOC of the extracted CD
Track | Start | Length | Start sector | End sector --------------------------------------------------------- 1 | 0:00.00 | 3:22.22 | 0 | 15171 2 | 3:22.22 | 2:43.20 | 15172 | 27416 3 | 6:05.42 | 4:39.68 | 27417 | 48409 4 | 10:45.35 | 4:45.09 | 48410 | 69793 5 | 15:30.44 | 2:14.64 | 69794 | 79907 6 | 17:45.33 | 2:34.01 | 79908 | 91458 7 | 20:19.34 | 4:53.60 | 91459 | 113493 8 | 25:13.19 | 2:20.44 | 113494 | 124037 9 | 27:33.63 | 3:13.73 | 124038 | 138585 10 | 30:47.61 | 2:59.07 | 138586 | 152017 11 | 33:46.68 | 1:51.52 | 152018 | 160394 12 | 35:38.45 | 3:10.00 | 160395 | 174644 13 | 38:48.45 | 9:43.01 | 174645 | 218370
Track 1
Filename C:\WAFRIP\Nemanja Radulovic - Les 5 saisons (2011) [FLAC]\01 - Nemanja Radulovic & Double Sens - Le Printemps - Allegro.wav
Pre-gap length 0:00:02.00
Peak level 78.1 % Extraction speed 2.4 X Track quality 100.0 % Test CRC 9CE16C06 Copy CRC 9CE16C06 Accurately ripped (confidence 1) [B02E9A8E] (AR v2) Copy OK
Track 2
Filename C:\WAFRIP\Nemanja Radulovic - Les 5 saisons (2011) [FLAC]\02 - Nemanja Radulovic & Double Sens - Le Printemps - Largo.wav
Peak level 29.8 % Extraction speed 2.5 X Track quality 100.0 % Test CRC 52C42427 Copy CRC 52C42427 Accurately ripped (confidence 1) [2F3349B9] (AR v2) Copy OK
Track 3
Filename C:\WAFRIP\Nemanja Radulovic - Les 5 saisons (2011) [FLAC]\03 - Nemanja Radulovic & Double Sens - Le Printemps - Allegro.wav
Peak level 85.0 % Extraction speed 3.0 X Track quality 100.0 % Test CRC 3B892583 Copy CRC 3B892583 Accurately ripped (confidence 1) [63A85120] (AR v2) Copy OK
Track 4
Filename C:\WAFRIP\Nemanja Radulovic - Les 5 saisons (2011) [FLAC]\04 - Nemanja Radulovic & Double Sens - L'Ete - Allegro.wav
Pre-gap length 0:00:05.01
Peak level 87.5 % Extraction speed 3.3 X Track quality 100.0 % Test CRC 8641CFB9 Copy CRC 8641CFB9 Accurately ripped (confidence 1) [B0D3A3E8] (AR v2) Copy OK
Track 5
Filename C:\WAFRIP\Nemanja Radulovic - Les 5 saisons (2011) [FLAC]\05 - Nemanja Radulovic & Double Sens - L'Ete - Adagio.wav
Peak level 28.3 % Extraction speed 3.0 X Track quality 100.0 % Test CRC 207F12E1 Copy CRC 207F12E1 Accurately ripped (confidence 1) [ADC5BBEF] (AR v2) Copy OK
Track 6
Filename C:\WAFRIP\Nemanja Radulovic - Les 5 saisons (2011) [FLAC]\06 - Nemanja Radulovic & Double Sens - L'Ete - Presto.wav
Peak level 91.5 % Extraction speed 2.7 X Track quality 99.9 % Test CRC B9E26503 Copy CRC B9E26503 Accurately ripped (confidence 1) [C444152E] (AR v2) Copy OK
Track 7
Filename C:\WAFRIP\Nemanja Radulovic - Les 5 saisons (2011) [FLAC]\07 - Nemanja Radulovic & Double Sens - L'Automne - Allegro.wav
Pre-gap length 0:00:03.33
Peak level 84.8 % Extraction speed 3.4 X Track quality 99.9 % Test CRC 0C583161 Copy CRC 0C583161 Accurately ripped (confidence 1) [F0ADF86C] (AR v2) Copy OK
Track 8
Filename C:\WAFRIP\Nemanja Radulovic - Les 5 saisons (2011) [FLAC]\08 - Nemanja Radulovic & Double Sens - L'Automne - Allegro molto.wav
Peak level 9.8 % Extraction speed 3.4 X Track quality 100.0 % Test CRC 758D8C09 Copy CRC 758D8C09 Accurately ripped (confidence 1) [9EB15A79] (AR v2) Copy OK
Track 9
Filename C:\WAFRIP\Nemanja Radulovic - Les 5 saisons (2011) [FLAC]\09 - Nemanja Radulovic & Double Sens - L'Automne - Allegro.wav
Peak level 73.0 % Extraction speed 3.8 X Track quality 100.0 % Test CRC F9506450 Copy CRC F9506450 Accurately ripped (confidence 1) [69D0456F] (AR v2) Copy OK
Track 10
Filename C:\WAFRIP\Nemanja Radulovic - Les 5 saisons (2011) [FLAC]\10 - Nemanja Radulovic & Double Sens - L'Hiver - Allegro non molto.wav
Pre-gap length 0:00:05.88
Peak level 88.2 % Extraction speed 3.9 X Track quality 100.0 % Test CRC F40B2C1D Copy CRC F40B2C1D Accurately ripped (confidence 1) [51AE67EE] (AR v2) Copy OK
Track 11
Filename C:\WAFRIP\Nemanja Radulovic - Les 5 saisons (2011) [FLAC]\11 - Nemanja Radulovic & Double Sens - L'Hiver - Largo.wav
Peak level 27.1 % Extraction speed 3.6 X Track quality 100.0 % Test CRC 5FD8EA13 Copy CRC 5FD8EA13 Accurately ripped (confidence 1) [CE4E9E83] (AR v2) Copy OK
Track 12
Filename C:\WAFRIP\Nemanja Radulovic - Les 5 saisons (2011) [FLAC]\12 - Nemanja Radulovic & Double Sens - L'Hiver - Allegro.wav
Peak level 95.0 % Extraction speed 4.1 X Track quality 100.0 % Test CRC 8BD7F031 Copy CRC 8BD7F031 Accurately ripped (confidence 1) [0D593B5F] (AR v2) Copy OK
Track 13
Filename C:\WAFRIP\Nemanja Radulovic - Les 5 saisons (2011) [FLAC]\13 - Nemanja Radulovic & Les Trilles du Diable - Spring in Japan 2011.wav
Pre-gap length 0:00:01.97
Peak level 88.6 % Extraction speed 4.6 X Track quality 99.9 % Test CRC B84FDDC4 Copy CRC B84FDDC4 Accurately ripped (confidence 1) [6C3EC915] (AR v2) Copy OK
All tracks accurately ripped
No errors occurred
End of status report
---- CUETools DB Plugin V2.1.3
[CTDB TOCID: jM0dfs68gFRnOdY2bbi8nOmaddc-] disk not present in database, Submit result: jM0dfs68gFRnOdY2bbi8nOmaddc- has been uploaded
==== Log checksum 2A1B7457BAFFCB73A6DD4128E66DF84BC6AB4724FEEDB95BE188CCF46461A291 ====

Содержание индексной карты (.CUE)

REM GENRE ClassicalREM DATE 2011REM DISCID 990B5F0DREM COMMENT "ExactAudioCopy v1.0b3"CATALOG 0028947646969PERFORMER "Nemanja Radulovic"TITLE "Les 5 saisons"FILE "01 - Vivaldi- Le quattro stagioni- La Primavera- 1. Allegro.wav" WAVE TRACK 01 AUDIO TITLE "Vivaldi: Le quattro stagioni: La Primavera: 1. Allegro" PERFORMER "Nemanja Radulovic" ISRC FR92Z1100024 INDEX 01 00:00:00FILE "02 - Vivaldi- Le quattro stagioni- La Primavera- 2. Largo.wav" WAVE TRACK 02 AUDIO TITLE "Vivaldi: Le quattro stagioni: La Primavera: 2. Largo" PERFORMER "Nemanja Radulovic" ISRC FR92Z1100025 INDEX 01 00:00:00FILE "03 - Vivaldi- Le quattro stagioni- La Primavera- 3. Allegro (Danza pastorale).wav" WAVE TRACK 03 AUDIO TITLE "Vivaldi: Le quattro stagioni: La Primavera: 3. Allegro (Danza pastorale)" PERFORMER "Nemanja Radulovic" ISRC FR92Z1100026 INDEX 01 00:00:00 TRACK 04 AUDIO TITLE "Vivaldi: Le quattro stagioni: L'Estate: 1. Allegro non molto - Allegro" PERFORMER "Nemanja Radulovic" ISRC FR92Z1100027 INDEX 00 04:34:67FILE "04 - Vivaldi- Le quattro stagioni- L'Estate- 1. Allegro non molto - Allegro.wav" WAVE INDEX 01 00:00:00FILE "05 - Vivaldi- Le quattro stagioni- L'Estate- 2. Adagio - Presto - Adagio.wav" WAVE TRACK 05 AUDIO TITLE "Vivaldi: Le quattro stagioni: L'Estate: 2. Adagio - Presto - Adagio" PERFORMER "Nemanja Radulovic" ISRC FR92Z1100028 INDEX 01 00:00:00FILE "06 - Vivaldi- Le quattro stagioni- L'Estate- 3. Presto (Tempo impetuoso d'estate).wav" WAVE TRACK 06 AUDIO TITLE "Vivaldi: Le quattro stagioni: L'Estate: 3. Presto (Tempo impetuoso d'estate)" PERFORMER "Nemanja Radulovic" ISRC FR92Z1100029 INDEX 01 00:00:00 TRACK 07 AUDIO TITLE "Vivaldi: Le quattro stagioni: L'Autunno: 1. Allegro (Ballo, e canto de' villanelli)" PERFORMER "Nemanja Radulovic" ISRC FR92Z1100030 INDEX 00 02:30:51FILE "07 - Vivaldi- Le quattro stagioni- L'Autunno- 1. Allegro (Ballo, e canto de' villanelli).wav" WAVE INDEX 01 00:00:00FILE "08 - Vivaldi- Le quattro stagioni- L'Autunno- 2. Adagio molto (Ubriachi dormienti).wav" WAVE TRACK 08 AUDIO TITLE "Vivaldi: Le quattro stagioni: L'Autunno: 2. Adagio molto (Ubriachi dormienti)" PERFORMER "Nemanja Radulovic" ISRC FR92Z1100031 INDEX 01 00:00:00FILE "09 - Vivaldi- Le quattro stagioni- L'Autunno- 3. Allegro (La caccia).wav" WAVE TRACK 09 AUDIO TITLE "Vivaldi: Le quattro stagioni: L'Autunno: 3. Allegro (La caccia)" PERFORMER "Nemanja Radulovic" ISRC FR92Z1100032 INDEX 01 00:00:00 TRACK 10 AUDIO TITLE "Vivaldi: Le quattro stagioni: L'Inverno: 1. Allegro non molto" PERFORMER "Nemanja Radulovic" ISRC FR92Z1100033 INDEX 00 03:08:07FILE "10 - Vivaldi- Le quattro stagioni- L'Inverno- 1. Allegro non molto.wav" WAVE INDEX 01 00:00:00FILE "11 - Vivaldi- Le quattro stagioni- L'Inverno- 2. Largo.wav" WAVE TRACK 11 AUDIO TITLE "Vivaldi: Le quattro stagioni: L'Inverno: 2. Largo" PERFORMER "Nemanja Radulovic" ISRC FR92Z1100034 INDEX 01 00:00:00FILE "12 - Vivaldi- Le quattro stagioni- L'Inverno- 3. Allegro.wav" WAVE TRACK 12 AUDIO TITLE "Vivaldi: Le quattro stagioni: L'Inverno: 3. Allegro" PERFORMER "Nemanja Radulovic" ISRC FR92Z1100035 INDEX 01 00:00:00 TRACK 13 AUDIO TITLE "13 - Sedlar- Spring in Japan 2011" PERFORMER "Nemanja Radulovic" ISRC FR92Z1100036 INDEX 00 03:08:02FILE "13 - Sedlar: Spring in Japan 2011.wav" WAVE INDEX 01 00:00:00

Отчет CUETools

[CUETools log; Date: 12.09.2014 19:36:36; Version: 2.1.5][CTDB TOCID: jM0dfs68gFRnOdY2bbi8nOmaddc-] found.Track | CTDB Status 1 | (3/3) Accurately ripped 2 | (3/3) Accurately ripped 3 | (2/3) Accurately ripped 4 | (3/3) Accurately ripped 5 | (3/3) Accurately ripped 6 | (3/3) Accurately ripped 7 | (3/3) Accurately ripped 8 | (3/3) Accurately ripped 9 | (3/3) Accurately ripped 10 | (3/3) Accurately ripped 11 | (3/3) Accurately ripped 12 | (3/3) Accurately ripped 13 | (3/3) Accurately ripped[AccurateRip ID: 0015924b-00d74b62-990b5f0d] found.Track [ CRC | V2 ] Status 01 [1a1c8444|b02e9a8e] (00+10/10) Accurately ripped 02 [ed55dbce|2f3349b9] (00+10/10) Accurately ripped 03 [4843b978|63a85120] (00+07/07) Accurately ripped 04 [610f9eb5|b0d3a3e8] (00+09/09) Accurately ripped 05 [2f0f8873|adc5bbef] (00+10/10) Accurately ripped 06 [0e281557|c444152e] (00+10/10) Accurately ripped 07 [6b49d208|f0adf86c] (00+10/10) Accurately ripped 08 [ab40ffc5|9eb15a79] (00+10/10) Accurately ripped 09 [d833dfcb|69d0456f] (00+10/10) Accurately ripped 10 [bc9ddd0b|51ae67ee] (00+10/10) Accurately ripped 11 [3f4181bb|ce4e9e83] (00+10/10) Accurately ripped 12 [cdca50bc|0d593b5f] (00+10/10) Accurately ripped 13 [85ea42b3|6c3ec915] (00+10/10) Accurately ripped
Track Peak [ CRC32 ] [W/O NULL] [ LOG ] -- 95,0 [B420436A] [54B68B2F] 01 78,1 [9CE16C06] [2EF768D8] CRC32 02 29,8 [52C42427] [E0038A8F] CRC32 03 85,0 [3B892583] [FB53FD77] CRC32 04 87,5 [8641CFB9] [AABDE0D1] CRC32 05 28,3 [207F12E1] [24ECF08D] CRC32 06 91,5 [B9E26503] [9608EAFE] CRC32 07 84,8 [0C583161] [6A846643] CRC32 08 9,8 [758D8C09] [2C90A437] CRC32 09 73,0 [F9506450] [BC42A463] CRC32 10 88,2 [F40B2C1D] [3192D4B1] CRC32 11 27,1 [5FD8EA13] [5E66D94C] CRC32 12 95,0 [8BD7F031] [C9111FE1] CRC32 13 88,6 [B84FDDC4] [68EFFA52] CRC32

Review by David Denton

Nemanja Radulović’s performance of The Four Seasons comes as much from the heart as it does from the printed page. He often toys with rhythms and tempos, dynamics are taken to such extremes that at times the music become just audible, and mood swings from pensiveness to mercurial vivacity happen in the twinkling of an eye.
You could hardly quibble at the technical brilliance he brings to the music, ‘Summer’ being an example of his left-hand alacrity as he drives tempos forwards at a breathless pace. Then, just when you expect rhythms to be highly stressed in the finale of ‘Autumn’, the performance becomes soft-grained. For my library I would always opt for safety with the excellent Andrew Manze and the Amsterdam Baroque Orchestra (Warner), but with the 15 members of Double Sens playing with admirable unity, Radulović certainly captures the attention.
Aleksandar Sedlar’s Spring in Japan portrays the great earthquake and tsunami in March 2011, and the work moves from the sounds of popular music to suggest the agony of the event. A smaller string group, The Devil’s Trills, ably conjures up the appropriate sounds. Up-front recorded balance gives suitable priority to Radulović.
[teatrix.ru].t9908.torrent 
Торрент: Зарегистрирован [ 2015-10-25 20:37 ] · AD0D7D1E73C8164471FA348E689B33FC5CAE3E51

Скачать .torrent

Скачать

20 KB

Статус: проверено
Скачан: 1 раз
Размер: 225 MB
terms.php



Быстрый ответ

Имя:

      
Для отправки сообщений необходимо включить JavaScript
Показать сообщения:    

Текущее время: 11-Дек 07:13

Часовой пояс: UTC + 3


Вы можете начинать темы
Вы можете отвечать на сообщения
Вы не можете редактировать свои сообщения
Вы не можете удалять свои сообщения
Вы не можете голосовать в опросах
Вы не можете прикреплять файлы к сообщениям
Вы можете скачивать файлы