(Classical) Bach / Handel / Buxtehude / Franck — Toccata & Fugue BWV 565 / Organ Concerto Op 4/1 HWV 289 / Choral Fantasy / Choral (Eberhard Kraus; Eugen Duvier) — 1993, APE (image+.cue) lossless


Статистика раздачи [Обновить пиров]
Размер:  277 MB   |    Зарегистрирован:  1 год 1 месяц   |    Скачан:  0 раз

Полного источника не было: Никогда

 
   
 
 
 

[Цитировать]

Toccata & Fugue BWV 565 / Organ Concerto Op 4/1 HWV 289 / Choral Fantasy / Choral- Жанр: Classical
Страна-производитель диска: Россия
Год издания диска: 1993
Издатель (лейбл): Point Classics
Номер по каталогу: 2670632
Аудио кодек: ape
Тип рипа: image+.cue
Битрейт аудио: lossless
Продолжительность: 00h59'51"
Источник: собственный рип
Наличие сканов в содержимом раздачи: нет-Треклист:
01. Johann Sebastian Bach. Toccata and Fugue d-moll BWV 565 [00h07'50"]
02. Dietrich Buxtehude. Choral Fantasy BX 223 «Wie schön leuchtet der Morgenstern» [00h07'11"]
03. Juan Cabanillles. Kyrie, Gloria, Agnus Die [00h04'00"]
04. Cesar Franck. Organ Choral № 3 a-moll [00h12'06"]
05. Louis-Claude d'Aquin. Noel G-Dur [00h06'59"]
Organ – Eberhard Kraus
George Frideric Handel. Organ Concerto g-moll Op 4/1 HWV 289
06. I. Larghetto e staccato [00h05'22"]
07. II. Allegro [00h05'33"]
08. III. Adagio [00h01'21"]
09. IV. Andante [00h04'30"]
Camerata Romana, cond. Eugen Duvier
10. Johann Pachelbel. Two Choral Preludes: «Vom Himmel hoch» & «Allein Gott in der Höh» [00h04'59"]
Organ – Eberhard Kraus-

EAC log

Exact Audio Copy V0.99 prebeta 5 from 4. May 2009
Отчёт EAC об извлечении, выполненном 12. сентября 2014, 11:39
Various / Famous Organ Works
Дисковод: MITSUMI CR-486ETE   Adapter: 0  ID: 0
Режим чтения                 : Достоверность
Использование точного потока : Да
Отключение кэша аудио        : Да
Использование указателей C2  : Нет
Коррекция смещения при чтении                     : 6
Способность читать области Lead-in и Lead-out     : Нет
Заполнение пропущенных сэмплов тишиной            : Да
Удаление блоков с тишиной в начале и конце        : Нет
При вычислениях CRC использовались нулевые сэмплы : Да
Интерфейс                                         : Установленный внешний ASPI-интерфейс
Выходной формат          : Monkey's Audio (без потерь)
Выбранный битрейт        : Normal Lossless Compression
Качество                 : Высокий
Добавление ID3-тэга      : Нет
Утилита сжатия           : C:\Program Files\Monkey's Audio\MAC.exe
TOC извлечённого CD
     Трек |   Старт  | Длительность | Начальный сектор | Конечный сектор
    ---------------------------------------------------------------------
       1  |  0:00.00 |    7:50.00   |           0      |      35249
       2  |  7:50.00 |    7:10.52   |       35250      |      67551
       3  | 15:00.52 |    4:00.00   |       67552      |      85551
       4  | 19:00.52 |   12:06.23   |       85552      |     140024
       5  | 31:07.00 |    6:58.40   |      140025      |     171414
       6  | 38:05.40 |    5:22.00   |      171415      |     195564
       7  | 43:27.40 |    5:33.12   |      195565      |     220551
       8  | 49:00.52 |    1:21.08   |      220552      |     226634
       9  | 50:21.60 |    4:29.47   |      226635      |     246856
      10  | 54:51.32 |    4:59.23   |      246857      |     269304
Характеристики диапазона извлечения и сообщения об ошибках
Выбранный диапазон
     Имя файла D:\Музыка lossless\Famous Organ Works\Various - Famous Organ Works.wav
     Пиковый уровень 99.9 %
     Качество диапазона 100.0 %
     CRC теста EA14231D
     CRC копии EA14231D
     Копирование... OK
Ошибок не произошло
AccurateRip: сводка
Трек  1  точность не определена (достоверность 1)  [268F5238], AccurateRip вернул [D9F2B7AE]
Трек  2  точность не определена (достоверность 1)  [F7CD8BF9], AccurateRip вернул [0464E564]
Трек  3  точность не определена (достоверность 1)  [A39C31A8], AccurateRip вернул [B6C6CB68]
Трек  4  точность не определена (достоверность 1)  [96D2FF8C], AccurateRip вернул [7C074346]
Трек  5  точность не определена (достоверность 1)  [818D01E7], AccurateRip вернул [42E7F9A4]
Трек  6  точность не определена (достоверность 1)  [2F87107A], AccurateRip вернул [0EA11126]
Трек  7  точность не определена (достоверность 1)  [2CD88C50], AccurateRip вернул [E19E9D0F]
Трек  8  точность не определена (достоверность 1)  [17DD2634], AccurateRip вернул [B7CEFAC7]
Трек  9  точность не определена (достоверность 1)  [8AC7231E], AccurateRip вернул [F408A7CA]
Трек 10  точность не определена (достоверность 1)  [5357EC7E], AccurateRip вернул [D89E9BA5]
Ни один трек не прошёл проверки на точность
В вашей базе может быть иной вариант штамповки диска
Конец отчёта

-

CUE

REM GENRE Classical
REM DATE 1993
REM DISCID 880E060A
REM COMMENT "ExactAudioCopy v0.99pb5"
PERFORMER "Various"
TITLE "Famous Organ Works"
FILE "Various - Famous Organ Works.ape" WAVE
  TRACK 01 AUDIO
    TITLE "Toccata and Fugue d-moll BWV 565"
    PERFORMER "Johann Sebastian Bach"
    INDEX 01 00:00:00
  TRACK 02 AUDIO
    TITLE "Choral Fantasy BX 223 «Wie schon leuchtet der Morgenstern»"
    PERFORMER "Dietrich Buxtehude"
    INDEX 00 07:43:35
    INDEX 01 07:50:00
  TRACK 03 AUDIO
    TITLE "Kyrie, Gloria, Agnus Die"
    PERFORMER "Juan Cabanillles"
    INDEX 00 14:56:25
    INDEX 01 15:00:52
  TRACK 04 AUDIO
    TITLE "Organ Choral № 3 a-moll"
    PERFORMER "Cesar Franck"
    INDEX 00 18:57:00
    INDEX 01 19:00:52
  TRACK 05 AUDIO
    TITLE "Noel G-Dur"
    PERFORMER "Louis-Claude d'Aquin"
    INDEX 00 31:04:00
    INDEX 01 31:07:00
  TRACK 06 AUDIO
    TITLE "Organ Concerto g-moll Op 4/1 HWV 289 – I. Larghetto e staccato"
    PERFORMER "George Frideric Handel"
    INDEX 00 37:59:32
    INDEX 01 38:05:40
  TRACK 07 AUDIO
    TITLE "Organ Concerto g-moll Op 4/1 HWV 289 – II. Allegro"
    PERFORMER "George Frideric Handel"
    INDEX 01 43:27:40
  TRACK 08 AUDIO
    TITLE "Organ Concerto g-moll Op 4/1 HWV 289 – III. Adagio"
    PERFORMER "George Frideric Handel"
    INDEX 01 49:00:52
  TRACK 09 AUDIO
    TITLE "Organ Concerto g-moll Op 4/1 HWV 289 – IV. Andante"
    PERFORMER "George Frideric Handel"
    INDEX 01 50:21:60
  TRACK 10 AUDIO
    TITLE "Two Choral Preludes: «Vom Himmel hoch» & «Allein Gott in der Hoh»"
    PERFORMER "Johann Pachelbel"
    INDEX 00 54:45:67
    INDEX 01 54:51:32
-
[teatrix.ru].t9909.torrent 
Торрент: Зарегистрирован [ 2015-10-25 20:37 ] · CD078F100AB075002061711D7E808F46ED62A3EB

Скачать .torrent

Скачать

11 KB

Статус: проверено
Скачан: 0 раз
Размер: 277 MB
terms.php



Быстрый ответ

Имя:

      
Для отправки сообщений необходимо включить JavaScript
Показать сообщения:    

Текущее время: 03-Дек 22:48

Часовой пояс: UTC + 3


Вы можете начинать темы
Вы можете отвечать на сообщения
Вы не можете редактировать свои сообщения
Вы не можете удалять свои сообщения
Вы не можете голосовать в опросах
Вы не можете прикреплять файлы к сообщениям
Вы можете скачивать файлы