(Classical, Concerto) Brahms - Piano Concerto No.2 {Maurizio Pollini, Christian Thielemann, Staatskapelle Dresden} - 2014, FLAC (tracks+.cue), lossless


Статистика раздачи [Обновить пиров]
Размер:  188 MB   |    Зарегистрирован:  1 год 1 месяц   |    Скачан:  1 раз

Полного источника не было: 18 дней

 
   
 
 
 

[Цитировать]

Maurizio Pollini, Christian Thielemann, Staatskapelle Dresden - Brahms: Piano Concerto No.2
Жанр: Classical, Concerto
Страна-производитель диска: EU
Год издания диска: 2014
Издатель (лейбл): Deutsche Grammophon
Номер по каталогу: 00289 479 2384
Аудиокодек: FLAC
Тип рипа: tracks+.cue
Битрейт аудио: lossless
Продолжительность: 46:59
Источник (релизер): vasted (what)
Наличие сканов в содержимом раздачи: front, back
Треклист:
01. 1. Allegro non troppo (17:13)
02. 2. Allegro appassionato (9:12)
03. 3. Andante - Piu adagio (11:22)
04. 4. Allegro grazioso - Un poco piu presto (9:12)
Исполнители:
Maurizio Pollini - piano
Christian Thielemann - conductor
Staatskapelle Dresden
Recorded live at the Semperoper, Dresden in January 2013.

Лог создания рипа

X Lossless Decoder version 20140504 (147.0)
XLD extraction logfile from 2014-07-07 15:07:33 -0400
Maurizio Pollini; Christian Thielemann: Staatskapelle Dresden / Brahms: Piano Concerto #2
Used drive : MATSHITA DVD-R UJ-8A8 (revision HB14)Media type : Pressed CD
Ripper mode : XLD Secure RipperDisable audio cache : OK for the drive with a cache less than 1375KiBMake use of C2 pointers : NORead offset correction : 102Max retry count : 40Gap status : Analyzed, Appended (except HTOA)
TOC of the extracted CD Track | Start | Length | Start sector | End sector --------------------------------------------------------- 1 | 00:00:00 | 17:12:46 | 0 | 77445 2 | 17:12:46 | 09:11:51 | 77446 | 118821 3 | 26:24:22 | 11:22:18 | 118822 | 169989 4 | 37:46:40 | 09:12:09 | 169990 | 211398
AccurateRip Summary (DiscID: 0008d079-00224e7a-300b0204) Track 01 : NG (total 2 submissions) Track 02 : NG (total 2 submissions) Track 03 : OK (v2, confidence 1/2) Track 04 : OK (v2, confidence 1/2) ->2 tracks accurately ripped, 2 tracks not
All Tracks Album gain : 0.55 dB Peak : 0.959106 Statistics Read error : 0 Jitter error (maybe fixed) : 0 Retry sector count : 0 Damaged sector count : 0
Track 01 Filename : /Users/argentum/Downloads/WCD/UP UP UP/Maurizio Pollini; Christian Thielemannпјљ Staatskapelle Dresden - Brahmsпјљ Piano Concerto #2 (2014) [FLAC]/01 Brahmsпјљ Piano Concerto #2 In B Flat, Op. 83 - 1. Allegro Non Troppo.flac Pre-gap length : 00:02:00
Track gain : -0.03 dB Peak : 0.923584 CRC32 hash (test run) : BD762F43 CRC32 hash : BD762F43 CRC32 hash (skip zero) : 4D2C3070 AccurateRip v1 signature : E21073CF AccurateRip v2 signature : 82D90104 ->Rip may not be accurate (total 2 submissions). Statistics Read error : 0 Jitter error (maybe fixed) : 0 Retry sector count : 0 Damaged sector count : 0
Track 02 Filename : /Users/argentum/Downloads/WCD/UP UP UP/Maurizio Pollini; Christian Thielemannпјљ Staatskapelle Dresden - Brahmsпјљ Piano Concerto #2 (2014) [FLAC]/02 Brahmsпјљ Piano Concerto #2 In B Flat, Op. 83 - 2. Allegro Appassionato.flac
Track gain : -0.58 dB Peak : 0.959106 CRC32 hash (test run) : CF602FC3 CRC32 hash : CF602FC3 CRC32 hash (skip zero) : C0E3C0CD AccurateRip v1 signature : D3ADFB7E AccurateRip v2 signature : E8DCE7FF ->Rip may not be accurate (total 2 submissions). Statistics Read error : 0 Jitter error (maybe fixed) : 0 Retry sector count : 0 Damaged sector count : 0
Track 03 Filename : /Users/argentum/Downloads/WCD/UP UP UP/Maurizio Pollini; Christian Thielemannпјљ Staatskapelle Dresden - Brahmsпјљ Piano Concerto #2 (2014) [FLAC]/03 Brahmsпјљ Piano Concerto #2 In B Flat, Op. 83 - 3. Andante.flac
Track gain : 4.04 dB Peak : 0.738892 CRC32 hash (test run) : A989168D CRC32 hash : A989168D CRC32 hash (skip zero) : 825F9CE6 AccurateRip v1 signature : D5A73464 AccurateRip v2 signature : F2387890 ->Accurately ripped (v2, confidence 1/2) Statistics Read error : 0 Jitter error (maybe fixed) : 0 Retry sector count : 0 Damaged sector count : 0
Track 04 Filename : /Users/argentum/Downloads/WCD/UP UP UP/Maurizio Pollini; Christian Thielemannпјљ Staatskapelle Dresden - Brahmsпјљ Piano Concerto #2 (2014) [FLAC]/04 Brahmsпјљ Piano Concerto #2 In B Flat, Op. 83 - 4. Allegro Grazioso.flac
Track gain : 1.09 dB Peak : 0.764008 CRC32 hash (test run) : 3CF68C27 CRC32 hash : 3CF68C27 CRC32 hash (skip zero) : C51B5890 AccurateRip v1 signature : 73D4EA0A AccurateRip v2 signature : 4A15BE46 ->Accurately ripped (v2, confidence 1/2) Statistics Read error : 0 Jitter error (maybe fixed) : 0 Retry sector count : 0 Damaged sector count : 0
No errors occurred
End of status report
-----BEGIN XLD SIGNATURE-----WTxL1ddmlZjis6bfjM5ds7BSfGX6B4DoAfCzkTLkillIpUwr8PTX4vvpDGU6O7ZuMeUN.6xGi_J7TIEcMyQvtBBlSIdznD5Rjo1Yc.u-----END XLD SIGNATURE-----

Содержание индексной карты (.CUE)

TITLE "Brahms: Piano Concerto No.2"PERFORMER "Maurizio Pollini & Christian Thielemann"CATALOG 0028947923848REM GENRE "Classical"REM DATE "2014"REM DISCID 300B0204REM REPLAYGAIN_ALBUM_GAIN 0.55 dBREM REPLAYGAIN_ALBUM_PEAK 0.959106FILE "01 - 1. Allegro non troppo.flac" WAVE TRACK 01 AUDIO TITLE "1. Allegro non troppo" ISRC DEN961302221 REM REPLAYGAIN_TRACK_GAIN -0.03 dB REM REPLAYGAIN_TRACK_PEAK 0.923584 INDEX 01 00:00:00FILE "02 - 2. Allegro appassionato.flac" WAVE TRACK 02 AUDIO TITLE "2. Allegro appassionato" ISRC DEN961302222 REM REPLAYGAIN_TRACK_GAIN -0.58 dB REM REPLAYGAIN_TRACK_PEAK 0.959106 INDEX 01 00:00:00FILE "03 - 3. Andante - Piu adagio.flac" WAVE TRACK 03 AUDIO TITLE "3. Andante - Piu adagio" ISRC DEN961302223 REM REPLAYGAIN_TRACK_GAIN 4.04 dB REM REPLAYGAIN_TRACK_PEAK 0.738892 INDEX 01 00:00:00FILE "04 - 4. Allegro grazioso - Un poco piu presto.flac" WAVE TRACK 04 AUDIO TITLE "4. Allegro grazioso - Un poco piu presto" ISRC DEN961302224 REM REPLAYGAIN_TRACK_GAIN 1.09 dB REM REPLAYGAIN_TRACK_PEAK 0.764008 INDEX 01 00:00:00

Отчет CUETools

[CUETools log; Date: 11.09.2014 15:33:32; Version: 2.1.5][CTDB TOCID: XS2wdzDQyBqmtLvxqF582TrZx9I-] found.Track | CTDB Status 1 | (4/4) Accurately ripped 2 | (4/4) Accurately ripped 3 | (4/4) Accurately ripped 4 | (4/4) Accurately ripped[AccurateRip ID: 0008d079-00224e7a-300b0204] found.Track [ CRC | V2 ] Status 01 [e21073cf|82d90104] (0+1/3) Accurately ripped 02 [d3adfb7e|e8dce7ff] (0+1/3) Accurately ripped 03 [d5a73464|f2387890] (0+2/2) Accurately ripped 04 [73d4ea0a|4a15be46] (0+2/2) Accurately ripped
Track Peak [ CRC32 ] [W/O NULL] -- 95,9 [8C635F9A] [36DD8C97] 01 92,3 [BD762F43] [4D2C3070] 02 95,9 [CF602FC3] [C0E3C0CD] 03 73,8 [A989168D] [825F9CE6] 04 76,4 [3CF68C27] [C51B5890]

Review by Blair Sanderson

Maurizio Pollini's second Deutsche Grammophon release with Christian Thielemann and the Staatskapelle Dresden is a live concert recording of Johannes Brahms' Piano Concerto No. 2, a fitting follow-up to his successful 2011 CD of the Piano Concerto No. 1 in D minor. That recording marked Pollini's triumphant return to Dresden, but this 2013 recording is less about the significance of the concert and more about the consolidation of Pollini's working relationship with Thielemann and the orchestra. Their unity of purpose makes this concerto hold together extremely well, and the pianist interacts with the ensemble as much as he stands apart as soloist, so there is a conscious attempt to show how Brahms wove the piano into his textures and integrated all the parts as an organic whole. Yet Pollini's thoughtful and controlled playing is always clearly audible, and Thielemann gives him considerable freedom to use rubato and set the pace where it enhances the expression. Overall, the sound of the recording is rich and full, and much clearer than the previous DG release, which suffered from murky reproduction. Instead, this performance benefits from closer microphone placement and cleaner separation of parts.
[teatrix.ru].t9910.torrent 
Торрент: Зарегистрирован [ 2015-10-25 20:37 ] · 134CDD4ABFBF89A6723356E244E87541AE70CEBF

Скачать .torrent

Скачать

16 KB

Статус: проверено
Скачан: 1 раз
Размер: 188 MB
terms.php



Быстрый ответ

Имя:

      
Для отправки сообщений необходимо включить JavaScript
Показать сообщения:    

Текущее время: 06-Дек 13:10

Часовой пояс: UTC + 3


Вы можете начинать темы
Вы можете отвечать на сообщения
Вы не можете редактировать свои сообщения
Вы не можете удалять свои сообщения
Вы не можете голосовать в опросах
Вы не можете прикреплять файлы к сообщениям
Вы можете скачивать файлы