(Classical) Ludwig van Beethoven — Piano Concerto № 3 & Piano Sonata № 23 (Op 37 & 57) (Dubravka Tomsic; Paul Kantschieder) — 1992, APE (image+.cue) lossless


Статистика раздачи [Обновить пиров]
Размер:  194 MB   |    Зарегистрирован:  1 год 1 месяц   |    Скачан:  0 раз

Полного источника не было: Никогда

 
   
 
 
 

[Цитировать]

Piano Concerto № 3 & Piano Sonata № 23 (Op 37 & 57)- Жанр: Classical
Страна-производитель диска: Нидерланды
Год издания диска: 1992
Издатель (лейбл): Point Classics
Номер по каталогу: 2650592
CATALOG: 027726505923
Композитор: Ludwig van Beethoven
Аудио кодек: ape
Тип рипа: image+.cue
Битрейт аудио: lossless
Продолжительность: 01h00'46"
Источник: собственный рип
Наличие сканов в содержимом раздачи: нет-Треклист:
Piano Concerto № 3 с-moll Op 37
01. I. Allegro con brio [00h17'03"]
02. II. Largo [00h09'48"]
03. III. Rondo [00h09'08"]
Radio Symphony Orchestra Ljubljana, cond. Paul Kantschieder, Piano – Dubravka Tomšič
Piano Sonata № 23 f-moll Op 57 «Appassionata»
04. I. Allegro assai [00h10'21"]
05. II. Andante con moto [00h06'11"]
06. III. Allegro ma non troppo [00h08'14"]
Piano – Dubravka Tomšič-

EAC log

Exact Audio Copy V0.99 prebeta 5 from 4. May 2009
Отчёт EAC об извлечении, выполненном 11. сентября 2014, 14:05
Beethoven / Piano Concerto № 3 & Piano Sonata № 23
Дисковод: PIONEER DVD-RW  DVR-111D   Adapter: 1  ID: 1
Режим чтения                 : Достоверность
Использование точного потока : Да
Отключение кэша аудио        : Да
Использование указателей C2  : Нет
Коррекция смещения при чтении                     : 48
Способность читать области Lead-in и Lead-out     : Нет
Заполнение пропущенных сэмплов тишиной            : Да
Удаление блоков с тишиной в начале и конце        : Нет
При вычислениях CRC использовались нулевые сэмплы : Да
Интерфейс                                         : Установленный внешний ASPI-интерфейс
Выходной формат          : Monkey's Audio (без потерь)
Выбранный битрейт        : Normal Lossless Compression
Качество                 : Высокий
Добавление ID3-тэга      : Нет
Утилита сжатия           : C:\Program Files\Monkey's Audio\MAC.exe
TOC извлечённого CD
     Трек |   Старт  | Длительность | Начальный сектор | Конечный сектор
    ---------------------------------------------------------------------
       1  |  0:00.33 |   17:03.10   |          33      |      76767
       2  | 17:03.43 |    9:47.65   |       76768      |     120857
       3  | 26:51.33 |    9:08.32   |      120858      |     161989
       4  | 35:59.65 |   10:21.20   |      161990      |     208584
       5  | 46:21.10 |    6:11.08   |      208585      |     236417
       6  | 52:32.18 |    8:13.57   |      236418      |     273449
Характеристики диапазона извлечения и сообщения об ошибках
Выбранный диапазон
     Имя файла D:\Музыка lossless\Beethoven Piano Concerto № 3 & Piano Sonata № 23\Beethoven - Piano Concerto № 3 & Piano Sonata № 23.wav
     Пиковый уровень 93.7 %
     Качество диапазона 100.0 %
     CRC теста B9A73606
     CRC копии B9A73606
     Копирование... OK
Ошибок не произошло
AccurateRip: сводка
Трек  1  точность не определена (достоверность 2)  [805F5F4F], AccurateRip вернул [ABD417FE]
Трек  2  точность не определена (достоверность 2)  [ABEE62B0], AccurateRip вернул [9868EDCA]
Трек  3  точность не определена (достоверность 2)  [A26751B2], AccurateRip вернул [875CB2EF]
Трек  4  точность не определена (достоверность 2)  [2AA22792], AccurateRip вернул [59E2CEE3]
Трек  5  точность не определена (достоверность 2)  [3F2E6FED], AccurateRip вернул [25E7C6C7]
Трек  6  точность не определена (достоверность 2)  [EFB0672A], AccurateRip вернул [CF022A3C]
Ни один трек не прошёл проверки на точность
В вашей базе может быть иной вариант штамповки диска
Конец отчёта

-

CUE

REM GENRE Classical
REM DATE 1992
REM DISCID 400E3E06
REM COMMENT "ExactAudioCopy v0.99pb5"
PERFORMER "Beethoven"
TITLE "Piano Concerto № 3 & Piano Sonata № 23"
FILE "Beethoven - Piano Concerto № 3 & Piano Sonata № 23.ape" WAVE
  TRACK 01 AUDIO
    TITLE "Piano Concerto № 3 Op 37 c-moll – I. Allegro con brio"
    PERFORMER "Beethoven"
    INDEX 00 00:00:00
    INDEX 01 00:00:33
  TRACK 02 AUDIO
    TITLE "Piano Concerto № 3 Op 37 c-moll – II. Largo"
    PERFORMER "Beethoven"
    INDEX 00 16:59:45
    INDEX 01 17:03:43
  TRACK 03 AUDIO
    TITLE "Piano Concerto № 3 Op 37 c-moll – III. Rondo"
    PERFORMER "Beethoven"
    INDEX 00 26:49:25
    INDEX 01 26:51:33
  TRACK 04 AUDIO
    TITLE "Piano Sonata № 23 Op 57 f-moll «Appassionata» – I. Allegro assai"
    PERFORMER "Beethoven"
    INDEX 00 35:50:68
    INDEX 01 35:59:65
  TRACK 05 AUDIO
    TITLE "Piano Sonata № 23 Op 57 f-moll «Appassionata» – II. Andante con moto"
    PERFORMER "Beethoven"
    INDEX 00 46:16:33
    INDEX 01 46:21:10
  TRACK 06 AUDIO
    TITLE "Piano Sonata № 23 Op 57 f-moll «Appassionata» – III. Allegro ma non troppo"
    PERFORMER "Beethoven"
    INDEX 01 52:32:18
-
[teatrix.ru].t9911.torrent 
Торрент: Зарегистрирован [ 2015-10-25 20:37 ] · 8D97592F1206B577F5FB40F76A7966D1B2DA00B5

Скачать .torrent

Скачать

16 KB

Статус: проверено
Скачан: 0 раз
Размер: 194 MB
terms.php



Быстрый ответ

Имя:

      
Для отправки сообщений необходимо включить JavaScript
Показать сообщения:    

Текущее время: 06-Дек 15:13

Часовой пояс: UTC + 3


Вы можете начинать темы
Вы можете отвечать на сообщения
Вы не можете редактировать свои сообщения
Вы не можете удалять свои сообщения
Вы не можете голосовать в опросах
Вы не можете прикреплять файлы к сообщениям
Вы можете скачивать файлы