(Classical) Ludwig van Beethoven — Triple Concerto Op 56 & Eroica Variations Op 35 (The Moscow Piano Trio / Московское трио, Hugo Steurer; Lutz Herbig) — 1990, APE (image+.cue) lossless


Статистика раздачи [Обновить пиров]
Размер:  232 MB   |    Зарегистрирован:  1 год 1 месяц   |    Скачан:  0 раз

Полного источника не было: Никогда

 
   
 
 
 

[Цитировать]

Triple Concerto Op 56 & Eroica Variations Op 35- Жанр: Classical
Страна-производитель диска: Германия
Год издания диска: 1990
Издатель (лейбл): Classic Digital
Номер по каталогу: 140 179-2 P1
CATALOG: 036244533721
Композитор: Ludwig van Beethoven
Аудио кодек: ape
Тип рипа: image+.cue
Битрейт аудио: lossless
Продолжительность: 00h59'21"
Источник: собственный рип
Наличие сканов в содержимом раздачи: нет-Треклист:
Triple Concerto for Piano, Violin and Cello C-Dur / in C Major Op 56
01. I. Allegro [00h17'23"]
02. II. Largo [00h05'01"]
03. III. Rondo alla Pollacca [00h12'34"]
Radio Symphony Orchestra Ljubljana, cond. Lutz Herbig, The Moscow Piano Trio / Московское трио: Piano – Vladimir Ivanov / Владимир Иванов, Violin – Alexander Bonduriansky / Александр Бондурянский, Cello – Mikhail Utkin / Михаил Уткин
04. Eroica Variations with One Fugue Es-Dur / in E-flat Major Op 35 [00h24'22"]
Piano – Prof. Hugo Steurer-

EAC log

Exact Audio Copy V0.99 prebeta 5 from 4. May 2009
Отчёт EAC об извлечении, выполненном 9. сентября 2014, 12:26
Beethoven / Triple Concerto & Eroica Variations (RSOL)
Дисковод: PIONEER DVD-RW  DVR-111D   Adapter: 1  ID: 0
Режим чтения                 : Достоверность
Использование точного потока : Да
Отключение кэша аудио        : Да
Использование указателей C2  : Нет
Коррекция смещения при чтении                     : 48
Способность читать области Lead-in и Lead-out     : Нет
Заполнение пропущенных сэмплов тишиной            : Да
Удаление блоков с тишиной в начале и конце        : Нет
При вычислениях CRC использовались нулевые сэмплы : Да
Интерфейс                                         : Установленный внешний ASPI-интерфейс
Выходной формат          : Monkey's Audio (без потерь)
Выбранный битрейт        : Normal Lossless Compression
Качество                 : Высокий
Добавление ID3-тэга      : Нет
Утилита сжатия           : C:\Program Files\Monkey's Audio\MAC.exe
TOC извлечённого CD
     Трек |   Старт  | Длительность | Начальный сектор | Конечный сектор
    ---------------------------------------------------------------------
       1  |  0:00.00 |   17:23.25   |           0      |      78249
       2  | 17:23.25 |    5:01.27   |       78250      |     100851
       3  | 22:24.52 |   12:34.30   |      100852      |     157431
       4  | 34:59.07 |   24:22.18   |      157432      |     267099
Характеристики диапазона извлечения и сообщения об ошибках
Выбранный диапазон
     Имя файла D:\Музыка lossless\Beethoven Triple Concerto & Eroica Variations (RSOL)\Beethoven - Triple Concerto & Eroica Variations (RSOL).wav
     Пиковый уровень 99.9 %
     Качество диапазона 100.0 %
     CRC теста 231065BD
     CRC копии 231065BD
     Копирование... OK
Ошибок не произошло
AccurateRip: сводка
Трек  1  точное извлечение (доверие 17)  [0608A75D]
Трек  2  точное извлечение (доверие 17)  [2302A175]
Трек  3  точное извлечение (доверие 16)  [C2522144]
Трек  4  точное извлечение (доверие 13)  [592EE78D]
Все треки извлечены точно
Конец отчёта

-

CUE

REM GENRE Classical
REM DATE 1990
REM DISCID 1E0DE904
REM COMMENT "ExactAudioCopy v0.99pb5"
PERFORMER "Beethoven"
TITLE "Triple Concerto & Eroica Variations (RSOL)"
FILE "Beethoven - Triple Concerto & Eroica Variations (RSOL).ape" WAVE
  TRACK 01 AUDIO
    TITLE "Triple Concerto Op 56 C-Dur – I. Allegro"
    PERFORMER "Beethoven"
    INDEX 01 00:00:00
  TRACK 02 AUDIO
    TITLE "Triple Concerto Op 56 C-Dur – II. Largo"
    PERFORMER "Beethoven"
    INDEX 00 17:17:50
    INDEX 01 17:23:25
  TRACK 03 AUDIO
    TITLE "Triple Concerto Op 56 C-Dur – III. Rondo alla Pollacca"
    PERFORMER "Beethoven"
    INDEX 00 22:24:50
    INDEX 01 22:24:52
  TRACK 04 AUDIO
    TITLE "Eroica Variations with One Fugue Op 35 Es-Dur"
    PERFORMER "Beethoven"
    INDEX 00 34:50:47
    INDEX 01 34:59:07
-
[teatrix.ru].t9912.torrent 
Торрент: Зарегистрирован [ 2015-10-25 20:37 ] · ED03F3BF29CF8DF855E497FC2966ED25D80AE0B7

Скачать .torrent

Скачать

19 KB

Статус: проверено
Скачан: 0 раз
Размер: 232 MB
terms.php



Быстрый ответ

Имя:

      
Для отправки сообщений необходимо включить JavaScript
Показать сообщения:    

Текущее время: 07-Дек 17:29

Часовой пояс: UTC + 3


Вы можете начинать темы
Вы можете отвечать на сообщения
Вы не можете редактировать свои сообщения
Вы не можете удалять свои сообщения
Вы не можете голосовать в опросах
Вы не можете прикреплять файлы к сообщениям
Вы можете скачивать файлы