(Classical) Кабалевский – «Весна», Виолончельные концерты / Kabalevsky – «Spring» (symphonic poem) & Cello Concertos (Александр Рудин, Игорь Головшин / Alexander Rudin, Igor Golovschin) - 1997, FLAC (image+.cue) lossless


Статистика раздачи [Обновить пиров]
Размер:  182 MB   |    Зарегистрирован:  1 год 1 месяц   |    Скачан:  0 раз

Полного источника не было: Никогда

 
   
 
 
 

[Цитировать]

Кабалевский – «Весна», Виолончельные концерты / Kabalevsky – «Spring» (symphonic poem) & Cello Concertos (Александр Рудин, Игорь Головшин / Alexander Rudin, Igor Golovschin)
Жанр: Classical
Страна-производитель диска: ЕС
Год издания диска: 1997
Издатель (лейбл): Naxos
Номер по каталогу: 8.553788
Дата записи: январь 1996 г., Москва.
Аудиокодек: FLAC
Тип рипа: image+.cue
Битрейт аудио: lossless
Продолжительность: 00:56:43
Источник: odeonmusic
Наличие сканов в содержимом раздачи: да
Треклист:
Дмитрий Кабалевский (1904 — 1987).
Виолончельный концерт № 1 g-moll, op. 49 (1948 — 1949).
01. I. Allegro [06:53].
02. II. Largo, molto espressivo [05:28].
03. III. Allegretto [06:51].
Виолончельный концерт № 2 c-moll (C-dur), op. 77 (1964).
04. I. Molto sostenuto. — Allegro molto e energico. — Tempo I. — Cadenza. — [12:39].
05. II. Presto marcato. — Cadenza. — [08:49].
06. III. Andante con moto. — Allegro agitato. — Molto tranquillo [07:46].
«Весна», симфоническая поэма (по музыке из к/ф «Сестры», 1957), op. 65 (1960).
07. Con moto. Quasi valse rubato, capriccioso [08:09].
Исполнители:
Александр Рудин (виолончель).
Московский симфонический оркестр.
Дирижер Игорь Головшин.

Лог создания рипа

Exact Audio Copy V1.0 beta 3 from 29. August 2011
EAC extraction logfile from 10. February 2014, 11:53
Alexander Rudin / Kabalevsky - Cello Concertos Nos. 1 & 2 - Alexander Rudin
Used drive : TSSTcorpCDDVDW SH-222BB Adapter: 2 ID: 1
Read mode : SecureUtilize accurate stream : YesDefeat audio cache : YesMake use of C2 pointers : No
Read offset correction : 6Overread into Lead-In and Lead-Out : NoFill up missing offset samples with silence : YesDelete leading and trailing silent blocks : NoNull samples used in CRC calculations : YesUsed interface : Native Win32 interface for Win NT & 2000
Used output format : User Defined EncoderSelected bitrate : 1024 kBit/sQuality : HighAdd ID3 tag : NoCommand line compressor : C:\Program Files\Exact Audio Copy\Flac\flac.exeAdditional command line options : -8 -V -T "TITLE=%title%" -T "ARTIST=%artist%" -T "ALBUMARTIST=%albumartist%" -T "ALBUM=%albumtitle%" -T "DATE=%year%" -T "TRACKNUMBER=%tracknr%" -T "TRACKTOTAL=%numtracks%" -T "GENRE=%genre%" -T "COMMENT=%comment%" -T "PERFORMER=%albuminterpret%" -T "COMPOSER=%composer%" %source% -o %dest%
TOC of the extracted CD
Track | Start | Length | Start sector | End sector --------------------------------------------------------- 1 | 0:00.00 | 6:53.22 | 0 | 30996 2 | 6:53.22 | 5:28.08 | 30997 | 55604 3 | 12:21.30 | 6:53.24 | 55605 | 86603 4 | 19:14.54 | 12:39.21 | 86604 | 143549 5 | 31:54.00 | 8:48.70 | 143550 | 183219 6 | 40:42.70 | 7:48.70 | 183220 | 218389 7 | 48:31.65 | 8:09.00 | 218390 | 255064
Range status and errors
Selected range
Filename G:\Ripped general\[2985] Kabalevsky – Cello Concertos Nos. 1 & 2 – Alexander Rudin\Kabalevsky - Cello Concertos Nos. 1 & 2 - Alexander Rudin.wav
Peak level 77.6 % Extraction speed 7.0 X Range quality 100.0 % Test CRC 48CE150B Copy CRC 48CE150B Copy OK
No errors occurred
AccurateRip summary
Track 1 accurately ripped (confidence 4) [B53CCC99] (AR v2)Track 2 accurately ripped (confidence 4) [95DAF388] (AR v2)Track 3 accurately ripped (confidence 4) [EB40F6A3] (AR v2)Track 4 accurately ripped (confidence 4) [00A841D6] (AR v2)Track 5 accurately ripped (confidence 4) [25D390C6] (AR v2)Track 6 accurately ripped (confidence 4) [80A2E524] (AR v2)Track 7 accurately ripped (confidence 4) [82BC7E14] (AR v2)
All tracks accurately ripped
End of status report

Содержание индексной карты (.CUE)

REM GENRE ClassicalREM DATE 1997REM DISCID 550D4807REM COMMENT "ExactAudioCopy v1.0b3"PERFORMER "Alexander Rudin & Igor Golovschin"TITLE "Kabalevsky – Cello Concertos – Alexander Rudin"FILE "Kabalevsky – Cello Concertos – Alexander Rudin.flac" WAVE TRACK 01 AUDIO TITLE "Cello Concerto No. 1 in G minor, Op. 49 - I. Allegro" PERFORMER "Alexander Rudin & Igor Golovschin" INDEX 01 00:00:00 TRACK 02 AUDIO TITLE "Cello Concerto No. 1 in G minor, Op. 49 - II. Largo, molto espressivo" PERFORMER "Alexander Rudin & Igor Golovschin" INDEX 01 06:53:22 TRACK 03 AUDIO TITLE "Cello Concerto No. 1 in G minor, Op. 49 - III. Allegretto" PERFORMER "Alexander Rudin & Igor Golovschin" INDEX 01 12:21:30 TRACK 04 AUDIO TITLE "Cello Concerto No. 2 in C minor, Op. 77 - I. Molto sostenuto - Allegro molto e energico - Tempo I - Cadenza -" PERFORMER "Alexander Rudin & Igor Golovschin" INDEX 00 19:12:30 INDEX 01 19:14:54 TRACK 05 AUDIO TITLE "Cello Concerto No. 2 in C minor, Op. 77 - II. Presto marcato - Cadenza -" PERFORMER "Alexander Rudin & Igor Golovschin" INDEX 01 31:54:00 TRACK 06 AUDIO TITLE "Cello Concerto No. 2 in C minor, Op. 77 - III. Andante con moto - Allegro agitato - Molto tranquillo" PERFORMER "Alexander Rudin & Igor Golovschin" INDEX 01 40:42:70 TRACK 07 AUDIO TITLE "Spring, Symphonic Poem, Op. 65" PERFORMER "Igor Golovschin" INDEX 00 48:28:70 INDEX 01 48:31:65

Вариант индексной карты (.CUE) с выставленными зазорами

REM GENRE ClassicalREM DATE 1997REM DISCID 550D4807REM COMMENT "ExactAudioCopy v1.0b3"PERFORMER "Alexander Rudin & Igor Golovschin"TITLE "Kabalevsky – Cello Concertos – Alexander Rudin"FILE "Kabalevsky – Cello Concertos – Alexander Rudin.flac" WAVE TRACK 01 AUDIO TITLE "Cello Concerto No. 1 in G minor, Op. 49 - I. Allegro" PERFORMER "Alexander Rudin & Igor Golovschin" INDEX 01 00:00:00 TRACK 02 AUDIO TITLE "Cello Concerto No. 1 in G minor, Op. 49 - II. Largo, molto espressivo" PERFORMER "Alexander Rudin & Igor Golovschin" INDEX 01 06:53:22 TRACK 03 AUDIO TITLE "Cello Concerto No. 1 in G minor, Op. 49 - III. Allegretto" PERFORMER "Alexander Rudin & Igor Golovschin" INDEX 00 12:19:40 INDEX 01 12:21:30 TRACK 04 AUDIO TITLE "Cello Concerto No. 2 in C minor, Op. 77 - I. Molto sostenuto - Allegro molto e energico - Tempo I - Cadenza -" PERFORMER "Alexander Rudin & Igor Golovschin" INDEX 00 19:12:30 INDEX 01 19:14:54 TRACK 05 AUDIO TITLE "Cello Concerto No. 2 in C minor, Op. 77 - II. Presto marcato - Cadenza -" PERFORMER "Alexander Rudin & Igor Golovschin" INDEX 01 31:54:34 TRACK 06 AUDIO TITLE "Cello Concerto No. 2 in C minor, Op. 77 - III. Andante con moto - Allegro agitato - Molto tranquillo" PERFORMER "Alexander Rudin & Igor Golovschin" INDEX 01 40:42:70 TRACK 07 AUDIO TITLE "Spring, Symphonic Poem, Op. 65" PERFORMER "Igor Golovschin" INDEX 00 48:28:70 INDEX 01 48:31:65
[teatrix.ru].t9913.torrent 
Торрент: Зарегистрирован [ 2015-10-25 20:37 ] · 343B6E7424B431E28804D4B34A03341759BEF6C5

Скачать .torrent

Скачать

15 KB

Статус: проверено
Скачан: 0 раз
Размер: 182 MB
terms.php



Быстрый ответ

Имя:

      
Для отправки сообщений необходимо включить JavaScript
Показать сообщения:    

Текущее время: 10-Дек 00:23

Часовой пояс: UTC + 3


Вы можете начинать темы
Вы можете отвечать на сообщения
Вы не можете редактировать свои сообщения
Вы не можете удалять свои сообщения
Вы не можете голосовать в опросах
Вы не можете прикреплять файлы к сообщениям
Вы можете скачивать файлы