(Classical) Edward Grieg — Piano Concerto a-moll Op 16; Poetiske tonebilleder Op 3; Lyric Pieces Op 54 (Yuri Mouravlev / Юрий Муравлёв; Karl Eliasberg) — 1996, APE (image+.cue) lossless


Статистика раздачи [Обновить пиров]
Размер:  157 MB   |    Зарегистрирован:  1 год 1 месяц   |    Скачан:  0 раз

Полного источника не было: Никогда

 
   
 
 
 

[Цитировать]

Piano Concerto a-moll Op 16; Poetiske tonebilleder Op 3; Lyric Pieces Op 54- Жанр: Classical
Страна-производитель диска: Россия
Год издания диска: 1996
Издатель (лейбл): RCD
Номер по каталогу: RCD 16328
CATALOG: 4600383163284
Композитор: Edward Grieg
Аудио кодек: ape
Тип рипа: image+.cue
Битрейт аудио: lossless
Продолжительность: 01h00'23"
Источник: собственный рип
Наличие сканов в содержимом раздачи: нет-Треклист:
Piano Concerto a-moll / in A minor Op 16
01. I. Allegro molto moderato [00h12'13"]
02. II. Adagio [00h06'05"]
03. III. Allegro moderato molto e marcato [00h09'31"]
The State Symphony Orchestra of the USSR, cond. Karl Eliasberg, Piano – Yuri Mouravlev
Poetiske tonebilleder Op 3
04. I. Allegro ma non troppo e-moll / in E-minor [00h01'37"]
05. II. Allegro cantabile B-Dur / in B-flat Major [00h01'59"]
06. III. Con moto c-moll / in C minor [00h01'52"]
07. IV. Andante con sentimento A-Dur / in A Major [00h03'00"]
08. V. Allegro moderato F-Dur / in F Major [00h01'35"]
09. VI. Allegro scherzando e-moll / in E minor [00h00'53"]
Lyric Pieces Op 54
10. I. Shepherd's Boy g-moll / in G minor [00h04'08"]
11. II. Norwegian March C-Dur / in C Major [00h03'31"]
12. III. Procession of Dwarves d-moll / in D minor [00h03'09"]
13. IV. Notturno C-Dur / in C Major [00h04'00"]
14. V. Scherzo e-moll / in E minor [00h03'48"]
15. VI. Bell Ringing C-Dur / in C Major [00h03'00"]
Piano – Yuri Mouravlev-

EAC log

Exact Audio Copy V0.99 prebeta 5 from 4. May 2009
Отчёт EAC об извлечении, выполненном 8. сентября 2014, 16:17
Grieg / Mouravlev
Дисковод: MITSUMI CR-486ETE   Adapter: 0  ID: 0
Режим чтения                 : Достоверность
Использование точного потока : Да
Отключение кэша аудио        : Да
Использование указателей C2  : Нет
Коррекция смещения при чтении                     : 6
Способность читать области Lead-in и Lead-out     : Нет
Заполнение пропущенных сэмплов тишиной            : Да
Удаление блоков с тишиной в начале и конце        : Нет
При вычислениях CRC использовались нулевые сэмплы : Да
Интерфейс                                         : Встроенный Win32-интерфейс для Win NT/2000
Выходной формат          : Monkey's Audio (без потерь)
Выбранный битрейт        : Normal Lossless Compression
Качество                 : Высокий
Добавление ID3-тэга      : Нет
Утилита сжатия           : C:\Program Files\Monkey's Audio\MAC.exe
TOC извлечённого CD
     Трек |   Старт  | Длительность | Начальный сектор | Конечный сектор
    ---------------------------------------------------------------------
       1  |  0:00.30 |   12:13.23   |          30      |      55027
       2  | 12:13.53 |    6:05.35   |       55028      |      82437
       3  | 18:19.13 |    9:30.65   |       82438      |     125252
       4  | 27:50.03 |    1:36.59   |      125253      |     132511
       5  | 29:26.62 |    1:59.07   |      132512      |     141443
       6  | 31:25.69 |    1:52.28   |      141444      |     149871
       7  | 33:18.22 |    2:59.74   |      149872      |     163370
       8  | 36:18.21 |    1:35.26   |      163371      |     170521
       9  | 37:53.47 |    0:52.68   |      170522      |     174489
      10  | 38:46.40 |    4:08.10   |      174490      |     193099
      11  | 42:54.50 |    3:30.50   |      193100      |     208899
      12  | 46:25.25 |    3:09.30   |      208900      |     223104
      13  | 49:34.55 |    3:59.59   |      223105      |     241088
      14  | 53:34.39 |    3:48.19   |      241089      |     258207
      15  | 57:22.58 |    3:00.03   |      258208      |     271710
Характеристики диапазона извлечения и сообщения об ошибках
Выбранный диапазон
     Имя файла D:\Музыка lossless\Grieg Mouravlev\Grieg - Mouravlev.wav
     Пиковый уровень 80.4 %
     Качество диапазона 99.9 %
     CRC теста FB1AE3BE
     CRC копии FB1AE3BE
     Копирование... OK
Ошибок не произошло
AccurateRip: сводка
Трек  1  нет в базе данных
Трек  2  нет в базе данных
Трек  3  нет в базе данных
Трек  4  нет в базе данных
Трек  5  нет в базе данных
Трек  6  нет в базе данных
Трек  7  нет в базе данных
Трек  8  нет в базе данных
Трек  9  нет в базе данных
Трек 10  нет в базе данных
Трек 11  нет в базе данных
Трек 12  нет в базе данных
Трек 13  нет в базе данных
Трек 14  нет в базе данных
Трек 15  нет в базе данных
Ни одного трека нет в базе AccurateRip
Конец отчёта

-

CUE

REM GENRE Classical
REM DATE 1996
REM DISCID DD0E260F
REM COMMENT "ExactAudioCopy v0.99pb5"
PERFORMER "Grieg"
TITLE "Mouravlev"
FILE "Grieg - Mouravlev.ape" WAVE
  TRACK 01 AUDIO
    TITLE "Piano Concerto a-moll Op 16 - I. Allegro molto moderato"
    PERFORMER "Grieg"
    INDEX 00 00:00:00
    INDEX 01 00:00:30
  TRACK 02 AUDIO
    TITLE "Piano Concerto a-moll Op 16 - II. Adagio"
    PERFORMER "Grieg"
    INDEX 01 12:13:53
  TRACK 03 AUDIO
    TITLE "Piano Concerto a-moll Op 16 - III. Allegro moderato molto e marcato"
    PERFORMER "Grieg"
    INDEX 01 18:19:13
  TRACK 04 AUDIO
    TITLE "Poetiske tonebilleder Op 3 – I. Allegro ma non troppo e-moll"
    PERFORMER "Grieg"
    INDEX 01 27:50:03
  TRACK 05 AUDIO
    TITLE "Poetiske tonebilleder Op 3 – II. Allegro cantabile B-Dur"
    PERFORMER "Grieg"
    INDEX 01 29:26:62
  TRACK 06 AUDIO
    TITLE "Poetiske tonebilleder Op 3 – III. Con moto c-moll"
    PERFORMER "Grieg"
    INDEX 01 31:25:69
  TRACK 07 AUDIO
    TITLE "Poetiske tonebilleder Op 3 – IV. Andante con sentimento A-Dur"
    PERFORMER "Grieg"
    INDEX 01 33:18:22
  TRACK 08 AUDIO
    TITLE "Poetiske tonebilleder Op 3 – V. Allegro moderato F-Dur"
    PERFORMER "Grieg"
    INDEX 01 36:18:21
  TRACK 09 AUDIO
    TITLE "Poetiske tonebilleder Op 3 – VI. Allegro scherzando e-moll"
    PERFORMER "Grieg"
    INDEX 01 37:53:47
  TRACK 10 AUDIO
    TITLE "Lyric Pieces Op 54 – I. Shepherd's Boy g-moll"
    PERFORMER "Grieg"
    INDEX 01 38:46:40
  TRACK 11 AUDIO
    TITLE "Lyric Pieces Op 54 – II. Norwegian March C-Dur"
    PERFORMER "Grieg"
    INDEX 01 42:54:50
  TRACK 12 AUDIO
    TITLE "Lyric Pieces Op 54 – III. Procession of Dwarves d-moll"
    PERFORMER "Grieg"
    INDEX 01 46:25:25
  TRACK 13 AUDIO
    TITLE "Lyric Pieces Op 54 – IV. Notturno C-Dur"
    PERFORMER "Grieg"
    INDEX 01 49:34:55
  TRACK 14 AUDIO
    TITLE "Lyric Pieces Op 54 – V. Scherzo e-moll"
    PERFORMER "Grieg"
    INDEX 01 53:34:39
  TRACK 15 AUDIO
    TITLE "Lyric Pieces Op 54 – VI. Bell Ringing C-Dur"
    PERFORMER "Grieg"
    INDEX 01 57:22:58
-
[teatrix.ru].t9914.torrent 
Торрент: Зарегистрирован [ 2015-10-25 20:37 ] · 71549CD4239C8AB0D9F5973F9153E792FD9F0A8E

Скачать .torrent

Скачать

13 KB

Статус: проверено
Скачан: 0 раз
Размер: 157 MB
terms.php



Быстрый ответ

Имя:

      
Для отправки сообщений необходимо включить JavaScript
Показать сообщения:    

Текущее время: 10-Дек 09:59

Часовой пояс: UTC + 3


Вы можете начинать темы
Вы можете отвечать на сообщения
Вы не можете редактировать свои сообщения
Вы не можете удалять свои сообщения
Вы не можете голосовать в опросах
Вы не можете прикреплять файлы к сообщениям
Вы можете скачивать файлы