(Classical) Pyotr Tchaikovsky / Петр Чайковский — Piano Concerto № 1 & Romeo and Juliet (Ромео и Джульетта) (Dubravka Tomsic; Anton Nanut, Lawrence Siegel) — 1994, APE (image+.cue) lossless


Статистика раздачи [Обновить пиров]
Размер:  203 MB   |    Зарегистрирован:  1 год 1 месяц   |    Скачан:  0 раз

Полного источника не было: Никогда

 
   
 
 
 

[Цитировать]

Piano Concerto № 1 & «Romeo and Juliet»- Жанр: Classical
Страна-производитель диска: Германия
Год издания диска: 1994
Издатель (лейбл): Point Classics
Номер по каталогу: 2671732
CATALOG: 027726717326
Композитор: Петр Чайковский
Аудио кодек: ape
Тип рипа: image+.cue
Битрейт аудио: lossless
Продолжительность: 00h55'02"
Источник: собственный рип
Наличие сканов в содержимом раздачи: нет-Треклист:
Piano Concerto № 1 b-moll / in B-flat minor, Op 23
01. I. Allegro non troppo e molto maestoso – Allegro con spirito [00h21'53"]
02. II. Andantino semplice – Prestissimo – Tempo I [00h07'52"]
03. III. Allegro con fuoco [00h07'12"]
Philharmonia Slavonica, cond. Anton Nanut, Piano – Dubravka Tomšič
04. Fantasy-Overture «Romeo and Juliet» [00h18'05"]
New Philharmonia Orchestra London, cond. Lawrence Siegel-

EAC log

Exact Audio Copy V0.99 prebeta 5 from 4. May 2009
Отчёт EAC об извлечении, выполненном 8. сентября 2014, 13:12
Tchaikovsky / Piano Concerto № 1 & «Romeo and Juliet»
Дисковод: MITSUMI CR-486ETE   Adapter: 0  ID: 0
Режим чтения                 : Достоверность
Использование точного потока : Да
Отключение кэша аудио        : Да
Использование указателей C2  : Нет
Коррекция смещения при чтении                     : 6
Способность читать области Lead-in и Lead-out     : Нет
Заполнение пропущенных сэмплов тишиной            : Да
Удаление блоков с тишиной в начале и конце        : Нет
При вычислениях CRC использовались нулевые сэмплы : Да
Интерфейс                                         : Встроенный Win32-интерфейс для Win NT/2000
Выходной формат          : Monkey's Audio (без потерь)
Выбранный битрейт        : Normal Lossless Compression
Качество                 : Высокий
Добавление ID3-тэга      : Нет
Утилита сжатия           : C:\Program Files\Monkey's Audio\MAC.exe
TOC извлечённого CD
     Трек |   Старт  | Длительность | Начальный сектор | Конечный сектор
    ---------------------------------------------------------------------
       1  |  0:00.00 |   21:53.17   |           0      |      98491
       2  | 21:53.17 |    7:51.60   |       98492      |     133876
       3  | 29:45.02 |    7:11.45   |      133877      |     166246
       4  | 36:56.47 |   18:05.35   |      166247      |     247656
Характеристики диапазона извлечения и сообщения об ошибках
Выбранный диапазон
     Имя файла D:\Музыка lossless\Tchaikovsky Piano Concerto № 1 & «Romeo and Juliet» Tomsic\Tchaikovsky - Piano Concerto № 1 & «Romeo and Juliet».wav
     Пиковый уровень 85.2 %
     Качество диапазона 100.0 %
     CRC теста 44DE4533
     CRC копии 44DE4533
     Копирование... OK
Ошибок не произошло
AccurateRip: сводка
Трек  1  точное извлечение (доверие 2)  [763BAA83]
Трек  2  точное извлечение (доверие 2)  [194175E3]
Трек  3  точное извлечение (доверие 2)  [808F5E71]
Трек  4  точное извлечение (доверие 2)  [A30265CF]
Все треки извлечены точно
Конец отчёта

-

CUE

REM GENRE Classical
REM DATE 1994
REM DISCID 300CE604
REM COMMENT "ExactAudioCopy v0.99pb5"
PERFORMER "Tchaikovsky"
TITLE "Piano Concerto № 1 & «Romeo and Juliet»"
FILE "Tchaikovsky - Piano Concerto № 1 & «Romeo and Juliet».ape" WAVE
  TRACK 01 AUDIO
    TITLE "Piano Concerto № 1 Op 23 b-moll - I. Allegro non troppo e molto maestoso - Allegro con spirito"
    PERFORMER "Tchaikovsky"
    INDEX 01 00:00:00
  TRACK 02 AUDIO
    TITLE "Piano Concerto № 1 Op 23 b-moll - II. Andantino semplice - Prestissimo - Tempo I"
    PERFORMER "Tchaikovsky"
    INDEX 01 21:53:17
  TRACK 03 AUDIO
    TITLE "Piano Concerto № 1 Op 23 b-moll - III. Allegro con fuoco"
    PERFORMER "Tchaikovsky"
    INDEX 01 29:45:02
  TRACK 04 AUDIO
    TITLE "Fantasy-Overture «Romeo and Juliet»"
    PERFORMER "Tchaikovsky"
    INDEX 00 36:49:47
    INDEX 01 36:56:47
-
[teatrix.ru].t9915.torrent 
Торрент: Зарегистрирован [ 2015-10-25 20:37 ] · 7238FC71439C98AA0AC23835948C9A071211C05A

Скачать .torrent

Скачать

17 KB

Статус: проверено
Скачан: 0 раз
Размер: 203 MB
terms.php



Быстрый ответ

Имя:

      
Для отправки сообщений необходимо включить JavaScript
Показать сообщения:    

Текущее время: 03-Дек 07:41

Часовой пояс: UTC + 3


Вы можете начинать темы
Вы можете отвечать на сообщения
Вы не можете редактировать свои сообщения
Вы не можете удалять свои сообщения
Вы не можете голосовать в опросах
Вы не можете прикреплять файлы к сообщениям
Вы можете скачивать файлы