(Classical) Moeran - Violin Concerto; Delius - Legende; Holst - A Song of the Night; Elgar - Chanson de nuit, Op.15 Nos.1, 2; Vaughan Williams - The Lark Ascending (BBC Philharmonic, Tasmin Little, Sir Andrew Davis) - 2013, FLAC (image+.cue) lossless


Статистика раздачи [Обновить пиров]
Размер:  306 MB   |    Зарегистрирован:  1 год 1 месяц   |    Скачан:  0 раз

Полного источника не было: Никогда

 
   
 
 
 

[Цитировать]

The Lark Ascending (BBC Philharmonic, Tasmin Little, Sir Andrew Davis)
Жанр: Classical
Год издания диска: 2013
Дата записи: 2013
Аудиокодек: FLAC
Тип рипа: image+.cue
Битрейт аудио: lossless
Продолжительность: 74:57
Источник: собственный рип
Наличие сканов в содержимом раздачи: да
Треклист:
Ernest John Moeran (1894-1950)
Concerto for Violin and Orchestra (1937-42) 32:52
1 I Allegro moderato 13:22
2 II Rondo. Vivace 9:29
3 III Lento 9:54
Frederick Delius (1862-1934)
4 Legende (c. 1892-95) 8:09
Gustav Holst (1874-1934)
5 A Song of the Night, Op. 19 No. 1, H 74 (1905) 8:33
Edward Elgar (1857-1934)
6 Chanson de matin, Op. 15 No. 2 (1899) 3:02
Arranged 2013 for Violin and Orchestra by Roger Turner
7 Chanson de nuit, Op. 15 No. 1 (1897-99) 3:42
Arranged 2013 for Violin and Orchestra by Roger Turner
8 Salut d'amour, Op. 12 (1888) 3:13
Arranged 2013 for Violin and Orchestra by Roger Turner
Ralph Vaughan Williams (1872-1958)
9 The Lark Ascending (1914, revised 1920) 15:33
Romance for Violin and Orchestra
Исполнители:
BBC Philharmonic
Sir Andrew Davis
Tasmin Little violin

Лог создания рипа

Exact Audio Copy V1.0 beta 3 from 29. August 2011
EAC extraction logfile from 7. September 2014, 14:29
BBC Philharmonic, Tasmin Little, Sir Andrew Davis / The Lark Ascending
Used drive : Optiarc DVD RW AD-7260S Adapter: 2 ID: 0
Read mode : SecureUtilize accurate stream : YesDefeat audio cache : YesMake use of C2 pointers : No
Read offset correction : 48Overread into Lead-In and Lead-Out : NoFill up missing offset samples with silence : YesDelete leading and trailing silent blocks : NoNull samples used in CRC calculations : YesUsed interface : Native Win32 interface for Win NT & 2000
Used output format : User Defined EncoderSelected bitrate : 1024 kBit/sQuality : HighAdd ID3 tag : NoCommand line compressor : C:\Program Files (x86)\Exact Audio Copy\FLAC\FLAC.EXEAdditional command line options : -6 -V -T "ARTIST=%artist%" -T "TITLE=%title%" -T "ALBUM=%albumtitle%" -T "DATE=%year%" -T "TRACKNUMBER=%tracknr%" -T "GENRE=%genre%" -T "COMMENT=%comment%" -T "BAND=%albuminterpret%" -T "ALBUMARTIST=%albuminterpret%" -T "COMPOSER=%composer%" %haslyrics%--tag-from-file=LYRICS="%lyricsfile%"%haslyrics% -T "DISCNUMBER=%cdnumber%" -T "TOTALDISCS=%totalcds%" -T "TOTALTRACKS=%numtracks%" %hascover%--picture="%coverfile%"%hascover% %source% -o %dest%
TOC of the extracted CD
Track | Start | Length | Start sector | End sector --------------------------------------------------------- 1 | 0:00.00 | 13:26.63 | 0 | 60512 2 | 13:26.63 | 9:32.60 | 60513 | 103472 3 | 22:59.48 | 10:01.00 | 103473 | 148547 4 | 33:00.48 | 8:15.15 | 148548 | 185687 5 | 41:15.63 | 8:41.00 | 185688 | 224762 6 | 49:56.63 | 3:03.40 | 224763 | 238527 7 | 53:00.28 | 3:47.10 | 238528 | 255562 8 | 56:47.38 | 3:21.10 | 255563 | 270647 9 | 60:08.48 | 15:35.27 | 270648 | 340799
Range status and errors
Selected range
Filename D:\The Lark Ascending. Tasmin Little, Sir Andrew Davis.wav
Peak level 97.7 % Extraction speed 4.6 X Range quality 100.0 % Test CRC DA4753EF Copy CRC DA4753EF Copy OK
No errors occurred
AccurateRip summary
Track 1 accurately ripped (confidence 7) [E5762FA8] (AR v2)Track 2 accurately ripped (confidence 7) [E381EB8C] (AR v2)Track 3 accurately ripped (confidence 7) [2D974DB8] (AR v2)Track 4 accurately ripped (confidence 7) [B20D70CA] (AR v2)Track 5 accurately ripped (confidence 6) [A968C581] (AR v2)Track 6 accurately ripped (confidence 7) [BF858AB5] (AR v2)Track 7 accurately ripped (confidence 7) [44342F84] (AR v2)Track 8 accurately ripped (confidence 7) [2B2BD40A] (AR v2)Track 9 accurately ripped (confidence 7) [1F15B3BA] (AR v2)
All tracks accurately ripped
End of status report
---- CUETools DB Plugin V2.1.3
[CTDB TOCID: JL8GCZ3DSqPAcoIr1SuhHwgwibc-] found, Submit result: JL8GCZ3DSqPAcoIr1SuhHwgwibc- has been confirmed[840e2a11] (4/4) Accurately ripped

Содержание индексной карты (.CUE)

REM GENRE ClassicalREM DATE 2011REM DISCID 8B11C009REM COMMENT "ExactAudioCopy v1.0b3"PERFORMER "BBC Philharmonic, Tasmin Little, Sir Andrew Davis"TITLE "The Lark Ascending"FILE "The Lark Ascending. Tasmin Little, Sir Andrew Davis.flac" WAVE TRACK 01 AUDIO TITLE "Concerto for Violin and Orchestra - I. Allegro moderato" PERFORMER "BBC Philharmonic, Tasmin Little, Sir Andrew Davis" INDEX 01 00:00:00 TRACK 02 AUDIO TITLE "Concerto for Violin and Orchestra - II. Rondo. Vivace" PERFORMER "BBC Philharmonic, Tasmin Little, Sir Andrew Davis" INDEX 00 13:23:05 INDEX 01 13:26:63 TRACK 03 AUDIO TITLE "Concerto for Violin and Orchestra - III. Lento" PERFORMER "BBC Philharmonic, Tasmin Little, Sir Andrew Davis" INDEX 00 22:56:05 INDEX 01 22:59:48 TRACK 04 AUDIO TITLE "Legende" PERFORMER "BBC Philharmonic, Tasmin Little, Sir Andrew Davis" INDEX 00 32:53:65 INDEX 01 33:00:48 TRACK 05 AUDIO TITLE "A Song of the Night, Op.19 No.1, H 74" PERFORMER "BBC Philharmonic, Tasmin Little, Sir Andrew Davis" INDEX 00 41:09:65 INDEX 01 41:15:63 TRACK 06 AUDIO TITLE "Chanson de matin, Op.15 No.2" PERFORMER "BBC Philharmonic, Tasmin Little, Sir Andrew Davis" INDEX 00 49:49:05 INDEX 01 49:56:63 TRACK 07 AUDIO TITLE "Chanson de nuit, Op.15 No.1" PERFORMER "BBC Philharmonic, Tasmin Little, Sir Andrew Davis" INDEX 00 52:59:05 INDEX 01 53:00:28 TRACK 08 AUDIO TITLE "Salut d'amour, Op.12" PERFORMER "BBC Philharmonic, Tasmin Little, Sir Andrew Davis" INDEX 00 56:42:45 INDEX 01 56:47:38 TRACK 09 AUDIO TITLE "The lark Ascending" PERFORMER "BBC Philharmonic, Tasmin Little, Sir Andrew Davis" INDEX 00 60:00:55 INDEX 01 60:08:48
[teatrix.ru].t9916.torrent 
Торрент: Зарегистрирован [ 2015-10-25 20:37 ] · 800A017986352AFF39E64452362BA860E19E9709

Скачать .torrent

Скачать

25 KB

Статус: проверено
Скачан: 0 раз
Размер: 306 MB
terms.php



Быстрый ответ

Имя:

      
Для отправки сообщений необходимо включить JavaScript
Показать сообщения:    

Текущее время: 10-Дек 00:19

Часовой пояс: UTC + 3


Вы можете начинать темы
Вы можете отвечать на сообщения
Вы не можете редактировать свои сообщения
Вы не можете удалять свои сообщения
Вы не можете голосовать в опросах
Вы не можете прикреплять файлы к сообщениям
Вы можете скачивать файлы