(Classical) Wolfgang Amadeus Mozart — Piano Concertos № 23 & 27 (KV 488, 595) (Valery Grokhovsky / Валерий Гроховский; John Silantin / Джон Силантин) — 1994, APE (image+.cue) lossless


Статистика раздачи [Обновить пиров]
Размер:  182 MB   |    Зарегистрирован:  1 год 1 месяц   |    Скачан:  0 раз

Полного источника не было: Никогда

 
   
 
 
 

[Цитировать]

Piano Concertos № 23 & 27- Жанр: Classical
Страна-производитель диска: Россия
Год издания диска: 1994
Год записи фонограммы: 1994
Издатель (лейбл): Частная коллекция
Номер по каталогу: TR-109
Композитор: Wolfgang Amadeus Mozart
Аудио кодек: ape
Тип рипа: image+.cue
Битрейт аудио: lossless
Продолжительность: 00h54'30"
Источник: собственный рип
Наличие сканов в содержимом раздачи: нет-Треклист:
Piano Concerto № 23 A-Dur / in A Major KV 488
01. I. Allegro [00h10'54"]
02. II. Andante [00h07'18"]
03. III. Presto [00h07'47"]
Piano Concerto № 27 B-Dur / in B-flat Major KV 595
04. I. Allegro [00h13'38"]
05. II. Larghetto [00h06'53"]
06. III. Allegro [00h08'00"]
Moscow State Symphony Orchestra, cond. John Silantin, Piano – Valery Grokhovsky-

EAC log

Exact Audio Copy V0.99 prebeta 5 from 4. May 2009
Отчёт EAC об извлечении, выполненном 7. сентября 2014, 15:01
Mozart / Piano Concertos № 23 & 27
Дисковод: PIONEER DVD-RW  DVR-111D   Adapter: 1  ID: 0
Режим чтения                 : Достоверность
Использование точного потока : Да
Отключение кэша аудио        : Да
Использование указателей C2  : Нет
Коррекция смещения при чтении                     : 48
Способность читать области Lead-in и Lead-out     : Нет
Заполнение пропущенных сэмплов тишиной            : Да
Удаление блоков с тишиной в начале и конце        : Нет
При вычислениях CRC использовались нулевые сэмплы : Да
Интерфейс                                         : Установленный внешний ASPI-интерфейс
Выходной формат          : Monkey's Audio (без потерь)
Выбранный битрейт        : Normal Lossless Compression
Качество                 : Высокий
Добавление ID3-тэга      : Нет
Утилита сжатия           : C:\Program Files\Monkey's Audio\MAC.exe
TOC извлечённого CD
     Трек |   Старт  | Длительность | Начальный сектор | Конечный сектор
    ---------------------------------------------------------------------
       1  |  0:00.00 |   10:53.40   |           0      |      49014
       2  | 10:53.40 |    7:18.01   |       49015      |      81865
       3  | 18:11.41 |    7:47.21   |       81866      |     116911
       4  | 25:58.62 |   13:38.20   |      116912      |     178281
       5  | 39:37.07 |    6:52.53   |      178282      |     209234
       6  | 46:29.60 |    8:00.26   |      209235      |     245260
Характеристики диапазона извлечения и сообщения об ошибках
Выбранный диапазон
     Имя файла D:\Музыка lossless\Mozart Piano Concertos № 23 & 27 Grokhovsky\Mozart - Piano Concertos № 23 & 27.wav
     Пиковый уровень 66.1 %
     Качество диапазона 100.0 %
     CRC теста BFF7CCBC
     CRC копии BFF7CCBC
     Копирование... OK
Ошибок не произошло
AccurateRip: сводка
Трек  1  нет в базе данных
Трек  2  нет в базе данных
Трек  3  нет в базе данных
Трек  4  нет в базе данных
Трек  5  нет в базе данных
Трек  6  нет в базе данных
Ни одного трека нет в базе AccurateRip
Конец отчёта

-

CUE

REM GENRE Classical
REM DATE 1994
REM DISCID 530CC606
REM COMMENT "ExactAudioCopy v0.99pb5"
PERFORMER "Mozart"
TITLE "Piano Concertos № 23 & 27"
FILE "Mozart - Piano Concertos № 23 & 27.ape" WAVE
  TRACK 01 AUDIO
    TITLE "Piano Concerto № 23 A-Dur KV 488 - I. Allegro"
    PERFORMER "Mozart"
    INDEX 01 00:00:00
  TRACK 02 AUDIO
    TITLE "Piano Concerto № 23 A-Dur KV 488 - II. Andante"
    PERFORMER "Mozart"
    INDEX 01 10:53:40
  TRACK 03 AUDIO
    TITLE "Piano Concerto № 23 A-Dur KV 488 - III. Presto"
    PERFORMER "Mozart"
    INDEX 01 18:11:41
  TRACK 04 AUDIO
    TITLE "Piano Concerto No 27 B-Dur KV 595 - I. Allegro"
    PERFORMER "Mozart"
    INDEX 01 25:58:62
  TRACK 05 AUDIO
    TITLE "Piano Concerto No 27 B-Dur KV 595 - II. Larghetto"
    PERFORMER "Mozart"
    INDEX 01 39:37:07
  TRACK 06 AUDIO
    TITLE "Piano Concerto No 27 B-Dur KV 595 - III. Allegro"
    PERFORMER "Mozart"
    INDEX 01 46:29:60
-
[teatrix.ru].t9917.torrent 
Торрент: Зарегистрирован [ 2015-10-25 20:37 ] · 8B5869C408B5EF5D4A130CFF2FF01FF2552ED471

Скачать .torrent

Скачать

15 KB

Статус: проверено
Скачан: 0 раз
Размер: 182 MB
terms.php



Быстрый ответ

Имя:

      
Для отправки сообщений необходимо включить JavaScript
Показать сообщения:    

Текущее время: 11-Дек 01:29

Часовой пояс: UTC + 3


Вы можете начинать темы
Вы можете отвечать на сообщения
Вы не можете редактировать свои сообщения
Вы не можете удалять свои сообщения
Вы не можете голосовать в опросах
Вы не можете прикреплять файлы к сообщениям
Вы можете скачивать файлы